  0
SECTION
  2
HEADER
  9
$ACADVER
  1
AC1015
  9
$ACADMAINTVER
 70
     6
  9
$DWGCODEPAGE
  3
ANSI_932
  9
$INSBASE
 10
0.0
 20
0.0
 30
0.0
  9
$EXTMIN
 10
-214.348633
 20
-136.547607
 30
0.0
  9
$EXTMAX
 10
256.453956
 20
160.452393
 30
0.0
  9
$LIMMIN
 10
-214.348633
 20
-136.547607
  9
$LIMMAX
 10
256.453956
 20
160.452393
  9
$ORTHOMODE
 70
     0
  9
$REGENMODE
 70
     1
  9
$FILLMODE
 70
     1
  9
$QTEXTMODE
 70
     0
  9
$MIRRTEXT
 70
     1
  9
$LTSCALE
 40
1.0
  9
$ATTMODE
 70
     1
  9
$TEXTSIZE
 40
3.0
  9
$TRACEWID
 40
0.05
  9
$TEXTSTYLE
  7
MX_NOTE_STANDARD
  9
$CLAYER
  8
LY_3
  9
$CELTYPE
  6
CONTINUOUS
  9
$CECOLOR
 62
   256
  9
$CELTSCALE
 40
1.0
  9
$DISPSILH
 70
     0
  9
$DIMSCALE
 40
1.0
  9
$DIMASZ
 40
2.5
  9
$DIMEXO
 40
0.1
  9
$DIMDLI
 40
3.75
  9
$DIMRND
 40
0.0
  9
$DIMDLE
 40
0.0
  9
$DIMEXE
 40
2.286
  9
$DIMTP
 40
0.0
  9
$DIMTM
 40
0.0
  9
$DIMTXT
 40
3.0
  9
$DIMCEN
 40
2.5
  9
$DIMTSZ
 40
0.0
  9
$DIMTOL
 70
     0
  9
$DIMLIM
 70
     0
  9
$DIMTIH
 70
     0
  9
$DIMTOH
 70
     0
  9
$DIMSE1
 70
     0
  9
$DIMSE2
 70
     0
  9
$DIMTAD
 70
     1
  9
$DIMZIN
 70
     8
  9
$DIMBLK
  1

  9
$DIMASO
 70
     1
  9
$DIMSHO
 70
     1
  9
$DIMPOST
  1

  9
$DIMAPOST
  1

  9
$DIMALT
 70
     0
  9
$DIMALTD
 70
     4
  9
$DIMALTF
 40
0.03937
  9
$DIMLFAC
 40
1.0
  9
$DIMTOFL
 70
     1
  9
$DIMTVP
 40
0.0
  9
$DIMTIX
 70
     0
  9
$DIMSOXD
 70
     0
  9
$DIMSAH
 70
     1
  9
$DIMBLK1
  1
_OPEN30
  9
$DIMBLK2
  1
_OPEN30
  9
$DIMSTYLE
  2
MXDIMSTYLE
  9
$DIMCLRD
 70
     0
  9
$DIMCLRE
 70
     0
  9
$DIMCLRT
 70
     0
  9
$DIMTFAC
 40
1.0
  9
$DIMGAP
 40
1.0425
  9
$DIMJUST
 70
     0
  9
$DIMSD1
 70
     0
  9
$DIMSD2
 70
     0
  9
$DIMTOLJ
 70
     0
  9
$DIMTZIN
 70
     0
  9
$DIMALTZ
 70
     0
  9
$DIMALTTZ
 70
     0
  9
$DIMUPT
 70
     0
  9
$DIMDEC
 70
     2
  9
$DIMTDEC
 70
     2
  9
$DIMALTU
 70
     2
  9
$DIMALTTD
 70
     4
  9
$DIMTXSTY
  7
MX_NOTE_STANDARD
  9
$DIMAUNIT
 70
     0
  9
$DIMADEC
 70
     0
  9
$DIMALTRND
 40
0.0
  9
$DIMAZIN
 70
     0
  9
$DIMDSEP
 70
    46
  9
$DIMATFIT
 70
     3
  9
$DIMFRAC
 70
     0
  9
$DIMLDRBLK
  1
_OPEN30
  9
$DIMLUNIT
 70
     2
  9
$DIMLWD
 70
    -2
  9
$DIMLWE
 70
    -2
  9
$DIMTMOVE
 70
     0
  9
$LUNITS
 70
     2
  9
$LUPREC
 70
     4
  9
$SKETCHINC
 40
0.1
  9
$FILLETRAD
 40
0.0
  9
$AUNITS
 70
     0
  9
$AUPREC
 70
     0
  9
$MENU
  1
acad
  9
$ELEVATION
 40
0.0
  9
$PELEVATION
 40
0.0
  9
$THICKNESS
 40
0.0
  9
$LIMCHECK
 70
     0
  9
$CHAMFERA
 40
0.0
  9
$CHAMFERB
 40
0.0
  9
$CHAMFERC
 40
0.0
  9
$CHAMFERD
 40
0.0
  9
$SKPOLY
 70
     0
  9
$TDCREATE
 40
2455709.581030093
  9
$TDUCREATE
 40
0.000000000
  9
$TDUPDATE
 40
2455709.581030093
  9
$TDUUPDATE
 40
0.000000000
  9
$TDINDWG
 40
0.0000000000
  9
$TDUSRTIMER
 40
0.0000000000
  9
$USRTIMER
 70
     1
  9
$ANGBASE
 50
0.0
  9
$ANGDIR
 70
     0
  9
$PDMODE
 70
     0
  9
$PDSIZE
 40
0.0
  9
$PLINEWID
 40
0.0
  9
$SPLFRAME
 70
     0
  9
$SPLINETYPE
 70
     6
  9
$SPLINESEGS
 70
     8
  9
$HANDSEED
  5
31E
  9
$SURFTAB1
 70
     6
  9
$SURFTAB2
 70
     6
  9
$SURFTYPE
 70
     6
  9
$SURFU
 70
     6
  9
$SURFV
 70
     6
  9
$UCSBASE
  2

  9
$UCSNAME
  2

  9
$UCSORG
 10
0.0
 20
0.0
 30
0.0
  9
$UCSXDIR
 10
1.0
 20
0.0
 30
0.0
  9
$UCSYDIR
 10
0.0
 20
1.0
 30
0.0
  9
$UCSORTHOREF
  2

  9
$UCSORTHOVIEW
 70
     0
  9
$UCSORGTOP
 10
0.0
 20
0.0
 30
0.0
  9
$UCSORGBOTTOM
 10
0.0
 20
0.0
 30
0.0
  9
$UCSORGLEFT
 10
0.0
 20
0.0
 30
0.0
  9
$UCSORGRIGHT
 10
0.0
 20
0.0
 30
0.0
  9
$UCSORGFRONT
 10
0.0
 20
0.0
 30
0.0
  9
$UCSORGBACK
 10
0.0
 20
0.0
 30
0.0
  9
$PUCSBASE
  2

  9
$PUCSNAME
  2

  9
$PUCSORG
 10
0.0
 20
0.0
 30
0.0
  9
$PUCSXDIR
 10
1.0
 20
0.0
 30
0.0
  9
$PUCSYDIR
 10
0.0
 20
1.0
 30
0.0
  9
$PUCSORTHOREF
  2

  9
$PUCSORTHOVIEW
 70
     0
  9
$PUCSORGTOP
 10
0.0
 20
0.0
 30
0.0
  9
$PUCSORGBOTTOM
 10
0.0
 20
0.0
 30
0.0
  9
$PUCSORGLEFT
 10
0.0
 20
0.0
 30
0.0
  9
$PUCSORGRIGHT
 10
0.0
 20
0.0
 30
0.0
  9
$PUCSORGFRONT
 10
0.0
 20
0.0
 30
0.0
  9
$PUCSORGBACK
 10
0.0
 20
0.0
 30
0.0
  9
$USERI1
 70
     0
  9
$USERI2
 70
     0
  9
$USERI3
 70
     0
  9
$USERI4
 70
     0
  9
$USERI5
 70
     0
  9
$USERR1
 40
0.0
  9
$USERR2
 40
0.0
  9
$USERR3
 40
0.0
  9
$USERR4
 40
0.0
  9
$USERR5
 40
0.0
  9
$WORLDVIEW
 70
     1
  9
$SHADEDGE
 70
     3
  9
$SHADEDIF
 70
    70
  9
$TILEMODE
 70
     1
  9
$MAXACTVP
 70
    16
  9
$PINSBASE
 10
0.0
 20
0.0
 30
0.0
  9
$PLIMCHECK
 70
     0
  9
$PEXTMIN
 10
1.000000E+20
 20
1.000000E+20
 30
1.000000E+20
  9
$PEXTMAX
 10
-1.000000E+20
 20
-1.000000E+20
 30
-1.000000E+20
  9
$PLIMMIN
 10
0.0
 20
0.0
  9
$PLIMMAX
 10
12.0
 20
9.0
  9
$UNITMODE
 70
     0
  9
$VISRETAIN
 70
     0
  9
$PLINEGEN
 70
     1
  9
$PSLTSCALE
 70
     0
  9
$TREEDEPTH
 70
  3020
  9
$CMLSTYLE
  2
Standard
  9
$CMLJUST
 70
     0
  9
$CMLSCALE
 40
1.0
  9
$PROXYGRAPHICS
 70
     0
  9
$MEASUREMENT
 70
     1
  9
$CELWEIGHT
370
     0
  9
$ENDCAPS
280
     0
  9
$JOINSTYLE
280
     0
  9
$LWDISPLAY
290
     0
  9
$INSUNITS
 70
     0
  9
$HYPERLINKBASE
  1

  9
$STYLESHEET
  1

  9
$XEDIT
290
     1
  9
$CEPSNTYPE
380
     0
  9
$PSTYLEMODE
290
     1
  9
$FINGERPRINTGUID
  2

  9
$VERSIONGUID
  2

  9
$EXTNAMES
290
     1
  9
$PSVPSCALE
 40
0.0
  0
ENDSEC
  0
SECTION
  2
CLASSES
  0
CLASS
  1
LWPOLYLINE
  2
AcDbPolyline
  3
AutoCAD 2000
 90
        0
280
     0
281
     1
  0
CLASS
  1
IMAGE
  2
AcDbRasterImage
  3
ISM
 90
      127
280
     0
281
     1
  0
CLASS
  1
OLE2FRAME
  2
AcDbOle2Frame
  3
AutoCAD 2000
 90
        0
280
     0
281
     1
  0
CLASS
  1
HATCH
  2
AcDbHatch
  3
AutoCAD 2000
 90
        0
280
     0
281
     1
  0
CLASS
  1
DICTIONARYVAR
  2
AcDbDictionaryVar
  3
AutoCAD 2000
 90
        0
280
     0
281
     0
  0
CLASS
  1
RASTERVARIABLES
  2
AcDbRasterVariables
  3
ISM
 90
        0
280
     0
281
     0
  0
CLASS
  1
IMAGEDEF
  2
AcDbRasterImageDef
  3
ISM
 90
        0
280
     0
281
     0
  0
CLASS
  1
IMAGEDEF_REACTOR
  2
AcDbRasterImageDefReactor
  3
ISM
 90
        1
280
     0
281
     0
  0
CLASS
  1
IDBUFFER
  2
AcDbIdBuffer
  3
AutoCAD 2000
 90
        0
280
     0
281
     0
  0
CLASS
  1
SPATIAL_FILTER
  2
AcDbSpatialFilter
  3
AutoCAD 2000
 90
        0
280
     0
281
     0
  0
CLASS
  1
XRECORD
  2
AcDbXrecord
  3
AutoCAD 2000
 90
        0
280
     0
281
     0
  0
CLASS
  1
SORTENTSTABLE
  2
AcDbSortentsTable
  3
AutoCAD 2000
 90
        0
280
     0
281
     0
  0
CLASS
  1
LAYER_INDEX
  2
AcDbLayerIndex
  3
AutoCAD 2000
 90
        0
280
     0
281
     0
  0
CLASS
  1
SPATIAL_INDEX
  2
AcDbSpatialIndex
  3
AutoCAD 2000
 90
        0
280
     0
281
     0
  0
CLASS
  1
OBJECT_PTR
  2
CAseDLPNTableRecord
  3
"ASE-LPNTableRecord"
 90
        1
280
     0
281
     0
  0
CLASS
  1
LAYOUT
  2
AcDbLayout
  3
AutoCAD 2000
 90
        0
280
     0
281
     0
  0
CLASS
  1
PLOTSETTINGS
  2
AcDbPlotSettings
  3
AutoCAD 2000
 90
        0
280
     0
281
     0
  0
CLASS
  1
ACDBDICTIONARYWDFLT
  2
AcDbDictionaryWithDefault
  3
AutoCAD 2000
 90
        0
280
     0
281
     0
  0
CLASS
  1
ACDBPLACEHOLDER
  2
AcDbPlaceHolder
  3
AutoCAD 2000
 90
        0
280
     0
281
     0
  0
ENDSEC
  0
SECTION
  2
TABLES
  0
TABLE
  2
VPORT
  5
7
100
AcDbSymbolTable
 70
     1
  0
VPORT
  5
15
100
AcDbSymbolTableRecord
100
AcDbViewportTableRecord
  2
*ACTIVE
 70
     0
 10
0.0
 20
0.0
 11
1.0
 21
1.0
 12
21.052661
 22
11.952393
 13
0.0
 23
0.0
 14
1.0
 24
1.0
 15
0.0
 25
0.0
 16
0.0
 26
0.0
 36
1.0
 17
0.0
 27
0.0
 37
0.0
 40
299.97
 41
1.732051
 42
50.0
 43
0.0
 44
0.0
 50
0.0
 51
0.0
 71
     0
 72
   100
 73
     1
 74
     1
 75
     0
 76
     0
 77
     0
 78
     0
281
     0
 65
     0
110
0.0
120
0.0
130
0.0
111
1.0
121
0.0
131
0.0
112
0.0
122
1.0
132
0.0
345
0
346
0
 79
     0
146
0.0
  0
ENDTAB
  0
TABLE
  2
LTYPE
  5
4
100
AcDbSymbolTable
 70
     5
  0
LTYPE
  5
11
100
AcDbSymbolTableRecord
100
AcDbLinetypeTableRecord
  2
BYBLOCK
 70
    64
  3

 72
    65
 73
     0
 40
0.0
  0
LTYPE
  5
12
100
AcDbSymbolTableRecord
100
AcDbLinetypeTableRecord
  2
BYLAYER
 70
    64
  3

 72
    65
 73
     0
 40
0.0
  0
LTYPE
  5
13
100
AcDbSymbolTableRecord
100
AcDbLinetypeTableRecord
  2
CONTINUOUS
 70
    64
  3
Solid line
 72
    65
 73
     0
 40
0.0
  0
LTYPE
  5
2B
100
AcDbSymbolTableRecord
100
AcDbLinetypeTableRecord
  2
NON_PLOTING
 70
     0
  3
Solid line
 72
    65
 73
     0
 40
0.0
  0
LTYPE
  5
56
100
AcDbSymbolTableRecord
100
AcDbLinetypeTableRecord
  2
CENTER
 70
    64
  3
Center ____ _ ____ _ ____ _ ____ _ ____ _ ____
 72
    65
 73
     4
 40
50.8
 49
31.75
 74
     0
 49
-6.35
 74
     0
 49
6.35
 74
     0
 49
-6.35
 74
     0
  0
ENDTAB
  0
TABLE
  2
LAYER
  5
2
100
AcDbSymbolTable
 70
     3
  0
LAYER
  5
14
100
AcDbSymbolTableRecord
100
AcDbLayerTableRecord
  2
0
 70
     0
 62
     7
  6
CONTINUOUS
290
     1
370
    -3
390
1D
  0
LAYER
  5
23
100
AcDbSymbolTableRecord
100
AcDbLayerTableRecord
  2
DEFPOINTS
 70
     0
 62
     7
  6
CONTINUOUS
290
     0
370
    -3
390
1D
  0
LAYER
  5
24
100
AcDbSymbolTableRecord
100
AcDbLayerTableRecord
  2
LY_3
 70
     0
 62
     7
  6
CONTINUOUS
290
     1
370
    -3
390
1D
  0
ENDTAB
  0
TABLE
  2
STYLE
  5
3
100
AcDbSymbolTable
 70
     4
  0
STYLE
  5
17
100
AcDbSymbolTableRecord
100
AcDbTextStyleTableRecord
  2
MX_NOTE_STANDARD
 70
     0
 40
0.0
 41
1.0
 50
0.0
 71
     0
 42
3.0
  3
txt.shx
  4
extfont.shx
  0
STYLE
  5
2FB
100
AcDbSymbolTableRecord
100
AcDbTextStyleTableRecord
  2
MX_DIMTXSTY_2
 70
     0
 40
0.0
 41
1.45
 50
0.0
 71
     0
 42
3.0
  3
txt.shx
  4
extfont.shx
  0
STYLE
  5
309
100
AcDbSymbolTableRecord
100
AcDbTextStyleTableRecord
  2
MX_DIMTXSTY_3
 70
     0
 40
0.0
 41
1.25
 50
0.0
 71
     0
 42
3.0
  3
txt.shx
  4
extfont.shx
  0
STYLE
  5
317
100
AcDbSymbolTableRecord
100
AcDbTextStyleTableRecord
  2
MX_DIMTXSTY_4
 70
     0
 40
0.0
 41
1.35
 50
0.0
 71
     0
 42
3.0
  3
txt.shx
  4
extfont.shx
  0
ENDTAB
  0
TABLE
  2
VIEW
  5
5
100
AcDbSymbolTable
 70
     0
  0
ENDTAB
  0
TABLE
  2
UCS
  5
6
100
AcDbSymbolTable
 70
     0
  0
ENDTAB
  0
TABLE
  2
APPID
  5
8
100
AcDbSymbolTable
 70
     1
  0
APPID
  5
16
100
AcDbSymbolTableRecord
100
AcDbRegAppTableRecord
  2
ACAD
 70
     0
  0
ENDTAB
  0
TABLE
  2
DIMSTYLE
  5
9
100
AcDbSymbolTable
 70
     1
100
AcDbDimStyleTable
 71
     0
  0
DIMSTYLE
105
18
100
AcDbSymbolTableRecord
100
AcDbDimStyleTableRecord
  2
MXDIMSTYLE
 70
     0
  3

  4

 40
1.0
 41
2.5
 42
0.1
 43
3.75
 44
2.286
 45
0.0
 46
0.0
 47
0.0
 48
0.0
 71
     0
 72
     0
 73
     0
 74
     0
 75
     0
 76
     0
 77
     1
 78
     8
 79
     0
140
3.0
141
2.5
142
0.0
143
0.03937
144
1.0
145
0.0
146
1.0
147
1.0425
148
0.0
170
     0
171
     4
172
     1
173
     1
174
     0
175
     0
176
     0
177
     0
178
     0
179
     0
271
     2
272
     2
273
     2
274
     4
275
     0
276
     0
277
     2
278
    46
279
     0
280
     0
281
     0
282
     0
283
     0
284
     0
285
     0
286
     0
288
     0
289
     3
340
17
341
25
342
0
343
25
344
25
371
    -2
372
    -2
  0
ENDTAB
  0
TABLE
  2
BLOCK_RECORD
  5
1
100
AcDbSymbolTable
 70
     5
  0
BLOCK_RECORD
  5
A
100
AcDbSymbolTableRecord
100
AcDbBlockTableRecord
  2
*MODEL_SPACE
340
20
  0
BLOCK_RECORD
  5
B
100
AcDbSymbolTableRecord
100
AcDbBlockTableRecord
  2
*PAPER_SPACE
340
21
  0
BLOCK_RECORD
  5
25
100
AcDbSymbolTableRecord
100
AcDbBlockTableRecord
  2
_OPEN30
340
0
  0
BLOCK_RECORD
  5
2EE
100
AcDbSymbolTableRecord
100
AcDbBlockTableRecord
  2
*D1
340
0
  0
BLOCK_RECORD
  5
2F3
100
AcDbSymbolTableRecord
100
AcDbBlockTableRecord
  2
_OPEN
340
0
102
{BLKREFS
331
2F9
331
2FA
331
307
331
308
331
315
331
316
102
}
  0
BLOCK_RECORD
  5
302
100
AcDbSymbolTableRecord
100
AcDbBlockTableRecord
  2
*D3
340
0
  0
BLOCK_RECORD
  5
310
100
AcDbSymbolTableRecord
100
AcDbBlockTableRecord
  2
*D4
340
0
  0
ENDTAB
  0
ENDSEC
  0
SECTION
  2
BLOCKS
  0
BLOCK
  5
D
100
AcDbEntity
  8
0
390
0
100
AcDbBlockBegin
  2
*MODEL_SPACE
 70
     0
 10
0.0
 20
0.0
 30
0.0
  3
*MODEL_SPACE
  1

  0
ENDBLK
  5
E
100
AcDbEntity
  8
0
390
0
100
AcDbBlockEnd
  0
BLOCK
  5
F
100
AcDbEntity
 67
     1
  8
0
390
0
100
AcDbBlockBegin
  2
*PAPER_SPACE
 70
     0
 10
0.0
 20
0.0
 30
0.0
  3
*PAPER_SPACE
  1

  0
ENDBLK
  5
10
100
AcDbEntity
 67
     1
  8
0
390
0
100
AcDbBlockEnd
  0
BLOCK
  5
26
100
AcDbEntity
  8
0
370
    -2
390
0
  6
ByBlock
 62
     0
100
AcDbBlockBegin
  2
_OPEN30
 70
     2
 10
0.0
 20
0.0
 30
0.0
  3
_OPEN30
  1

  0
LINE
  5
27
100
AcDbEntity
  8
0
370
    -2
390
0
  6
ByBlock
 62
     0
100
AcDbLine
 10
-1.0
 20
0.267949
 30
0.0
 11
0.0
 21
0.0
 31
0.0
  0
LINE
  5
28
100
AcDbEntity
  8
0
370
    -2
390
0
  6
ByBlock
 62
     0
100
AcDbLine
 10
0.0
 20
0.0
 30
0.0
 11
-1.0
 21
-0.267949
 31
0.0
  0
LINE
  5
29
100
AcDbEntity
  8
0
370
    -2
390
0
  6
ByBlock
 62
     0
100
AcDbLine
 10
0.0
 20
0.0
 30
0.0
 11
-1.0
 21
0.0
 31
0.0
  0
ENDBLK
  5
2A
100
AcDbEntity
  8
0
370
    -2
390
0
  6
ByBlock
 62
     0
100
AcDbBlockEnd
  0
BLOCK
  5
2EF
100
AcDbEntity
  8
0
370
    -2
390
0
  6
ByBlock
 62
     0
100
AcDbBlockBegin
  2
*D1
 70
     1
 10
0.0
 20
0.0
 30
0.0
  3
*D1
  1

  0
LINE
  5
2F0
100
AcDbEntity
  8
0
390
0
  6
CONTINUOUS
 62
   110
100
AcDbLine
 10
-155.279053
 20
122.412476
 30
0.0
 11
-42.279541
 21
122.412476
 31
0.0
  0
LINE
  5
2F1
100
AcDbEntity
  8
0
390
0
  6
CONTINUOUS
 62
   110
100
AcDbLine
 10
-155.279053
 20
110.027734
 30
0.0
 11
-155.279053
 21
122.912476
 31
0.0
  0
LINE
  5
2F2
100
AcDbEntity
  8
0
390
0
  6
CONTINUOUS
 62
   110
100
AcDbLine
 10
-42.279541
 20
109.027979
 30
0.0
 11
-42.279541
 21
122.912476
 31
0.0
  0
INSERT
  5
2F9
100
AcDbEntity
  8
0
390
0
  6
CONTINUOUS
 62
   110
100
AcDbBlockReference
  2
_OPEN
 10
-155.279053
 20
122.412476
 30
0.0
 41
3.0
 42
3.0
 43
3.0
 50
180.0
  0
INSERT
  5
2FA
100
AcDbEntity
  8
0
390
0
  6
CONTINUOUS
 62
   110
100
AcDbBlockReference
  2
_OPEN
 10
-42.279541
 20
122.412476
 30
0.0
 41
3.0
 42
3.0
 43
3.0
  0
MTEXT
  5
2FC
100
AcDbEntity
  8
0
390
0
  6
CONTINUOUS
 62
   110
100
AcDbMText
 10
-98.779297
 20
124.724976
 30
0.0
 40
2.54
 41
0.0
 71
     5
 72
     1
  1
\A1;113.0
  7
MX_DIMTXSTY_2
 73
     1
 44
0.899281
  0
POINT
  5
2FD
100
AcDbEntity
  8
DEFPOINTS
390
0
  6
CONTINUOUS
 62
     0
100
AcDbPoint
 10
-155.279053
 20
109.927734
 30
0.0
  0
POINT
  5
2FE
100
AcDbEntity
  8
DEFPOINTS
390
0
  6
CONTINUOUS
 62
     0
100
AcDbPoint
 10
-42.279541
 20
108.927979
 30
0.0
  0
POINT
  5
2FF
100
AcDbEntity
  8
DEFPOINTS
390
0
  6
CONTINUOUS
 62
     0
100
AcDbPoint
 10
-42.279541
 20
122.412476
 30
0.0
  0
ENDBLK
  5
300
100
AcDbEntity
  8
0
370
    -2
390
0
  6
ByBlock
 62
     0
100
AcDbBlockEnd
  0
BLOCK
  5
2F4
100
AcDbEntity
  8
0
370
    -2
390
0
  6
ByBlock
 62
     0
100
AcDbBlockBegin
  2
_OPEN
 70
     2
 10
0.0
 20
0.0
 30
0.0
  3
_OPEN
  1

  0
LINE
  5
2F5
100
AcDbEntity
  8
0
370
    -2
390
0
  6
ByBlock
 62
     0
100
AcDbLine
 10
-1.0
 20
0.166667
 30
0.0
 11
0.0
 21
0.0
 31
0.0
  0
LINE
  5
2F6
100
AcDbEntity
  8
0
370
    -2
390
0
  6
ByBlock
 62
     0
100
AcDbLine
 10
0.0
 20
0.0
 30
0.0
 11
-1.0
 21
-0.166667
 31
0.0
  0
LINE
  5
2F7
100
AcDbEntity
  8
0
370
    -2
390
0
  6
ByBlock
 62
     0
100
AcDbLine
 10
0.0
 20
0.0
 30
0.0
 11
-1.0
 21
0.0
 31
0.0
  0
ENDBLK
  5
2F8
100
AcDbEntity
  8
0
370
    -2
390
0
  6
ByBlock
 62
     0
100
AcDbBlockEnd
  0
BLOCK
  5
303
100
AcDbEntity
  8
0
370
    -2
390
0
  6
ByBlock
 62
     0
100
AcDbBlockBegin
  2
*D3
 70
     1
 10
0.0
 20
0.0
 30
0.0
  3
*D3
  1

  0
LINE
  5
304
100
AcDbEntity
  8
0
390
0
  6
CONTINUOUS
 62
   110
100
AcDbLine
 10
-16.529541
 20
122.412476
 30
0.0
 11
36.470459
 21
122.412476
 31
0.0
  0
LINE
  5
305
100
AcDbEntity
  8
0
390
0
  6
CONTINUOUS
 62
   110
100
AcDbLine
 10
-16.529541
 20
110.028223
 30
0.0
 11
-16.529541
 21
122.912476
 31
0.0
  0
LINE
  5
306
100
AcDbEntity
  8
0
390
0
  6
CONTINUOUS
 62
   110
100
AcDbLine
 10
36.470459
 20
110.027979
 30
0.0
 11
36.470459
 21
122.912476
 31
0.0
  0
INSERT
  5
307
100
AcDbEntity
  8
0
390
0
  6
CONTINUOUS
 62
   110
100
AcDbBlockReference
  2
_OPEN
 10
-16.529541
 20
122.412476
 30
0.0
 41
3.0
 42
3.0
 43
3.0
 50
180.0
  0
INSERT
  5
308
100
AcDbEntity
  8
0
390
0
  6
CONTINUOUS
 62
   110
100
AcDbBlockReference
  2
_OPEN
 10
36.470459
 20
122.412476
 30
0.0
 41
3.0
 42
3.0
 43
3.0
  0
MTEXT
  5
30A
100
AcDbEntity
  8
0
390
0
  6
CONTINUOUS
 62
   110
100
AcDbMText
 10
9.970459
 20
124.724976
 30
0.0
 40
2.54
 41
0.0
 71
     5
 72
     1
  1
\A1;53.0
  7
MX_DIMTXSTY_3
 73
     1
 44
0.899281
  0
POINT
  5
30B
100
AcDbEntity
  8
DEFPOINTS
390
0
  6
CONTINUOUS
 62
     0
100
AcDbPoint
 10
-16.529541
 20
109.928223
 30
0.0
  0
POINT
  5
30C
100
AcDbEntity
  8
DEFPOINTS
390
0
  6
CONTINUOUS
 62
     0
100
AcDbPoint
 10
36.470459
 20
109.927979
 30
0.0
  0
POINT
  5
30D
100
AcDbEntity
  8
DEFPOINTS
390
0
  6
CONTINUOUS
 62
     0
100
AcDbPoint
 10
36.470459
 20
122.412476
 30
0.0
  0
ENDBLK
  5
30E
100
AcDbEntity
  8
0
370
    -2
390
0
  6
ByBlock
 62
     0
100
AcDbBlockEnd
  0
BLOCK
  5
311
100
AcDbEntity
  8
0
370
    -2
390
0
  6
ByBlock
 62
     0
100
AcDbBlockBegin
  2
*D4
 70
     1
 10
0.0
 20
0.0
 30
0.0
  3
*D4
  1

  0
LINE
  5
312
100
AcDbEntity
  8
0
390
0
  6
CONTINUOUS
 62
   110
100
AcDbLine
 10
50.060425
 20
109.928223
 30
0.0
 11
50.060425
 21
-40.071777
 31
0.0
  0
LINE
  5
313
100
AcDbEntity
  8
0
390
0
  6
CONTINUOUS
 62
   110
100
AcDbLine
 10
36.570459
 20
109.928223
 30
0.0
 11
50.560425
 21
109.928223
 31
0.0
  0
LINE
  5
314
100
AcDbEntity
  8
0
390
0
  6
CONTINUOUS
 62
   110
100
AcDbLine
 10
36.570459
 20
-40.071777
 30
0.0
 11
50.560425
 21
-40.071777
 31
0.0
  0
INSERT
  5
315
100
AcDbEntity
  8
0
390
0
  6
CONTINUOUS
 62
   110
100
AcDbBlockReference
  2
_OPEN
 10
50.060425
 20
109.928223
 30
0.0
 41
3.0
 42
3.0
 43
3.0
 50
90.0
  0
INSERT
  5
316
100
AcDbEntity
  8
0
390
0
  6
CONTINUOUS
 62
   110
100
AcDbBlockReference
  2
_OPEN
 10
50.060425
 20
-40.071777
 30
0.0
 41
3.0
 42
3.0
 43
3.0
 50
270.0
  0
MTEXT
  5
318
100
AcDbEntity
  8
0
390
0
  6
CONTINUOUS
 62
   110
100
AcDbMText
 10
47.747925
 20
34.928223
 30
0.0
 40
2.54
 41
0.0
 71
     5
 72
     1
  1
\A1;150.0
  7
MX_DIMTXSTY_4
 11
0.0
 21
1.0
 31
0.0
 73
     1
 44
0.899281
  0
POINT
  5
319
100
AcDbEntity
  8
DEFPOINTS
390
0
  6
CONTINUOUS
 62
     0
100
AcDbPoint
 10
36.470459
 20
109.928223
 30
0.0
  0
POINT
  5
31A
100
AcDbEntity
  8
DEFPOINTS
390
0
  6
CONTINUOUS
 62
     0
100
AcDbPoint
 10
36.470459
 20
-40.071777
 30
0.0
  0
POINT
  5
31B
100
AcDbEntity
  8
DEFPOINTS
390
0
  6
CONTINUOUS
 62
     0
100
AcDbPoint
 10
50.060425
 20
-40.071777
 30
0.0
  0
ENDBLK
  5
31C
100
AcDbEntity
  8
0
370
    -2
390
0
  6
ByBlock
 62
     0
100
AcDbBlockEnd
  0
ENDSEC
  0
SECTION
  2
ENTITIES
  0
LINE
  5
2C
100
AcDbEntity
  8
DEFPOINTS
390
0
  6
NON_PLOTING
 62
     3
100
AcDbLine
 10
-214.348633
 20
-136.547607
 30
0.0
 11
205.651123
 21
-136.547607
 31
0.0
  0
LINE
  5
2D
100
AcDbEntity
  8
DEFPOINTS
390
0
  6
NON_PLOTING
 62
     3
100
AcDbLine
 10
205.651123
 20
160.452393
 30
0.0
 11
205.651123
 21
-136.547607
 31
0.0
  0
LINE
  5
2E
100
AcDbEntity
  8
DEFPOINTS
390
0
  6
NON_PLOTING
 62
     3
100
AcDbLine
 10
-214.348633
 20
160.452393
 30
0.0
 11
205.651123
 21
160.452393
 31
0.0
  0
LINE
  5
2F
100
AcDbEntity
  8
DEFPOINTS
390
0
  6
NON_PLOTING
 62
     3
100
AcDbLine
 10
-214.348633
 20
160.452393
 30
0.0
 11
-214.348633
 21
-136.547607
 31
0.0
  0
POINT
  5
30
100
AcDbEntity
  8
LY_3
390
0
  6
CONTINUOUS
 62
   172
 60
     1
100
AcDbPoint
 10
-433.546631
 20
23.22876
 30
0.0
  0
POINT
  5
31
100
AcDbEntity
  8
LY_3
390
0
  6
CONTINUOUS
 62
   172
 60
     1
100
AcDbPoint
 10
-461.047119
 20
23.228745
 30
0.0
  0
POINT
  5
32
100
AcDbEntity
  8
LY_3
390
0
  6
CONTINUOUS
 62
   172
 60
     1
100
AcDbPoint
 10
-406.046875
 20
23.228714
 30
0.0
  0
POINT
  5
33
100
AcDbEntity
  8
LY_3
390
0
  6
CONTINUOUS
 62
   172
 60
     1
100
AcDbPoint
 10
-433.546875
 20
-4.769547
 30
0.0
  0
POINT
  5
34
100
AcDbEntity
  8
LY_3
390
0
  6
CONTINUOUS
 62
   110
100
AcDbPoint
 10
205.651123
 20
-136.547607
 30
0.0
  0
POINT
  5
35
100
AcDbEntity
  8
LY_3
390
0
  6
CONTINUOUS
 62
   110
100
AcDbPoint
 10
36.469238
 20
34.928223
 30
0.0
  0
POINT
  5
36
100
AcDbEntity
  8
LY_3
390
0
  6
CONTINUOUS
 62
   110
100
AcDbPoint
 10
67.219238
 20
34.928223
 30
0.0
  0
POINT
  5
37
100
AcDbEntity
  8
LY_3
390
0
  6
CONTINUOUS
 62
   110
100
AcDbPoint
 10
67.219238
 20
34.928223
 30
0.0
  0
POINT
  5
38
100
AcDbEntity
  8
LY_3
390
0
  6
CONTINUOUS
 62
   110
100
AcDbPoint
 10
-42.279541
 20
109.928467
 30
0.0
  0
POINT
  5
39
100
AcDbEntity
  8
LY_3
390
0
  6
CONTINUOUS
 62
   110
100
AcDbPoint
 10
-42.279541
 20
-40.071533
 30
0.0
  0
POINT
  5
3A
100
AcDbEntity
  8
LY_3
390
0
  6
CONTINUOUS
 62
   110
100
AcDbPoint
 10
-42.279541
 20
34.928467
 30
0.0
  0
POINT
  5
3B
100
AcDbEntity
  8
LY_3
390
0
  6
CONTINUOUS
 62
   110
100
AcDbPoint
 10
-42.280762
 20
-58.570297
 30
0.0
  0
POINT
  5
3C
100
AcDbEntity
  8
LY_3
390
0
  6
CONTINUOUS
 62
   110
100
AcDbPoint
 10
-42.280762
 20
-111.570068
 30
0.0
  0
POINT
  5
3D
100
AcDbEntity
  8
LY_3
390
0
  6
CONTINUOUS
 62
   110
100
AcDbPoint
 10
-42.279541
 20
34.928467
 30
0.0
  0
POINT
  5
3E
100
AcDbEntity
  8
LY_3
390
0
  6
CONTINUOUS
 62
   110
100
AcDbPoint
 10
-42.280769
 20
-59.570889
 30
0.0
  0
POINT
  5
3F
100
AcDbEntity
  8
LY_3
390
0
  6
CONTINUOUS
 62
   110
100
AcDbPoint
 10
-42.280762
 20
-111.570068
 30
0.0
  0
LINE
  5
40
100
AcDbEntity
  8
LY_3
390
0
  6
CONTINUOUS
 62
     3
 60
     1
100
AcDbLine
 10
-406.046875
 20
-4.769547
 30
0.0
 11
-406.046875
 21
23.228973
 31
0.0
  0
LINE
  5
41
100
AcDbEntity
  8
LY_3
390
0
  6
CONTINUOUS
 62
     3
 60
     1
100
AcDbLine
 10
-461.04712
 20
-4.769546
 30
0.0
 11
-461.047114
 21
23.228943
 31
0.0
  0
LINE
  5
42
100
AcDbEntity
  8
LY_3
390
0
  6
CONTINUOUS
 62
     3
 60
     1
100
AcDbLine
 10
-461.047119
 20
23.228729
 30
0.0
 11
-406.046875
 21
23.228729
 31
0.0
  0
LINE
  5
43
100
AcDbEntity
  8
LY_3
390
0
  6
CONTINUOUS
 62
     3
 60
     1
100
AcDbLine
 10
-409.046631
 20
0.230453
 30
0.0
 11
-458.047363
 21
0.230453
 31
0.0
  0
LINE
  5
44
100
AcDbEntity
  8
LY_3
390
0
  6
CONTINUOUS
 62
     3
 60
     1
100
AcDbLine
 10
-458.047363
 20
16.228729
 30
0.0
 11
-409.046875
 21
16.228729
 31
0.0
  0
LINE
  5
45
100
AcDbEntity
  8
LY_3
390
0
  6
CONTINUOUS
 62
     3
 60
     1
100
AcDbLine
 10
-458.047363
 20
2.228744
 30
0.0
 11
-409.046875
 21
2.228744
 31
0.0
  0
LINE
  5
46
100
AcDbEntity
  8
LY_3
390
0
  6
CONTINUOUS
 62
     3
 60
     1
100
AcDbLine
 10
-458.047363
 20
18.228729
 30
0.0
 11
-409.046631
 21
18.228729
 31
0.0
  0
LINE
  5
47
100
AcDbEntity
  8
LY_3
390
0
  6
CONTINUOUS
 62
     3
 60
     1
100
AcDbLine
 10
-458.047123
 20
16.230622
 30
0.0
 11
-458.047123
 21
18.230622
 31
0.0
  0
LINE
  5
48
100
AcDbEntity
  8
LY_3
390
0
  6
CONTINUOUS
 62
     3
 60
     1
100
AcDbLine
 10
-458.047119
 20
0.230643
 30
0.0
 11
-458.04712
 21
2.230643
 31
0.0
  0
LINE
  5
49
100
AcDbEntity
  8
LY_3
390
0
  6
CONTINUOUS
 62
     3
 60
     1
100
AcDbLine
 10
-409.046627
 20
18.228687
 30
0.0
 11
-409.046627
 21
16.228687
 31
0.0
  0
LINE
  5
4A
100
AcDbEntity
  8
LY_3
390
0
  6
CONTINUOUS
 62
     3
 60
     1
100
AcDbLine
 10
-409.04663
 20
2.228702
 30
0.0
 11
-409.046631
 21
0.228703
 31
0.0
  0
LINE
  5
4B
100
AcDbEntity
  8
LY_3
390
0
  6
CONTINUOUS
 62
     3
 60
     1
100
AcDbLine
 10
-406.046875
 20
-4.769547
 30
0.0
 11
-461.047119
 21
-4.769547
 31
0.0
  0
LINE
  5
4C
100
AcDbEntity
  8
LY_3
390
0
  6
CONTINUOUS
 62
     3
100
AcDbLine
 10
95.220215
 20
-40.071533
 30
0.0
 11
95.220215
 21
109.928467
 31
0.0
  0
LINE
  5
4D
100
AcDbEntity
  8
LY_3
390
0
  6
CONTINUOUS
 62
     3
100
AcDbLine
 10
68.219238
 20
-40.070053
 30
0.0
 11
95.218994
 21
-40.070053
 31
0.0
  0
LINE
  5
4E
100
AcDbEntity
  8
LY_3
390
0
  6
CONTINUOUS
 62
     3
100
AcDbLine
 10
95.219238
 20
109.929703
 30
0.0
 11
68.219238
 21
109.929703
 31
0.0
  0
LINE
  5
4F
100
AcDbEntity
  8
LY_3
390
0
  6
CONTINUOUS
 62
     3
100
AcDbLine
 10
67.219238
 20
-39.070053
 30
0.0
 11
67.219238
 21
108.929703
 31
0.0
  0
LINE
  5
50
100
AcDbEntity
  8
LY_3
390
0
  6
CONTINUOUS
 62
     3
100
AcDbLine
 10
-70.279541
 20
-40.071533
 30
0.0
 11
-70.279541
 21
109.928467
 31
0.0
  0
LINE
  5
51
100
AcDbEntity
  8
LY_3
390
0
  6
CONTINUOUS
 62
     3
100
AcDbLine
 10
-43.279541
 20
-40.071533
 30
0.0
 11
-70.279541
 21
-40.071533
 31
0.0
  0
LINE
  5
52
100
AcDbEntity
  8
LY_3
390
0
  6
CONTINUOUS
 62
     3
100
AcDbLine
 10
-70.279541
 20
109.928467
 30
0.0
 11
-43.279541
 21
109.928467
 31
0.0
  0
LINE
  5
53
100
AcDbEntity
  8
LY_3
390
0
  6
CONTINUOUS
 62
     3
100
AcDbLine
 10
-42.279541
 20
-39.071533
 30
0.0
 11
-42.279541
 21
108.928467
 31
0.0
  0
LINE
  5
54
100
AcDbEntity
  8
LY_3
390
0
  6
CONTINUOUS
 62
     3
100
AcDbLine
 10
-42.280762
 20
-111.570068
 30
0.0
 11
-70.280762
 21
-111.570068
 31
0.0
  0
LINE
  5
55
100
AcDbEntity
  8
LY_3
390
0
  6
CONTINUOUS
 62
     3
100
AcDbLine
 10
-70.280762
 20
-58.570297
 30
0.0
 11
-44.279781
 21
-58.570297
 31
0.0
  0
LINE
  5
57
100
AcDbEntity
  8
LY_3
390
0
  6
CENTER
 62
   110
100
AcDbLine
 10
-22.529541
 20
34.928223
 30
0.0
 11
42.470459
 21
34.928223
 31
0.0
  0
LINE
  5
58
100
AcDbEntity
  8
LY_3
390
0
  6
CENTER
 62
   110
100
AcDbLine
 10
9.970459
 20
119.928223
 30
0.0
 11
9.970459
 21
-50.071777
 31
0.0
  0
LINE
  5
59
100
AcDbEntity
  8
LY_3
390
0
  6
CONTINUOUS
 62
     3
100
AcDbLine
 10
-71.078629
 20
78.93132
 30
0.0
 11
-71.078629
 21
83.93132
 31
0.0
  0
LINE
  5
5A
100
AcDbEntity
  8
LY_3
390
0
  6
CONTINUOUS
 62
     3
100
AcDbLine
 10
-70.279068
 20
83.931351
 30
0.0
 11
-71.078629
 21
83.931351
 31
0.0
  0
LINE
  5
5B
100
AcDbEntity
  8
LY_3
390
0
  6
CONTINUOUS
 62
     3
100
AcDbLine
 10
-70.278742
 20
78.931277
 30
0.0
 11
-71.078532
 21
78.931271
 31
0.0
  0
LINE
  5
5C
100
AcDbEntity
  8
LY_3
390
0
  6
CONTINUOUS
 62
     3
100
AcDbLine
 10
-75.277832
 20
86.924667
 30
0.0
 11
-75.277832
 21
75.924606
 31
0.0
  0
LINE
  5
5D
100
AcDbEntity
  8
LY_3
390
0
  6
CONTINUOUS
 62
     3
100
AcDbLine
 10
-77.276581
 20
86.924683
 30
0.0
 11
-75.277069
 21
86.924683
 31
0.0
  0
LINE
  5
5E
100
AcDbEntity
  8
LY_3
390
0
  6
CONTINUOUS
 62
     3
100
AcDbLine
 10
-75.277069
 20
75.924622
 30
0.0
 11
-77.276581
 21
75.924622
 31
0.0
  0
LINE
  5
5F
100
AcDbEntity
  8
LY_3
390
0
  6
CONTINUOUS
 62
     3
100
AcDbLine
 10
-77.27684
 20
86.924652
 30
0.0
 11
-77.27684
 21
75.924591
 31
0.0
  0
LINE
  5
60
100
AcDbEntity
  8
LY_3
390
0
  6
CONTINUOUS
 62
     3
100
AcDbLine
 10
-70.279694
 20
109.928406
 30
0.0
 11
-156.679138
 21
109.928406
 31
0.0
  0
LINE
  5
61
100
AcDbEntity
  8
LY_3
390
0
  6
CONTINUOUS
 62
     3
100
AcDbLine
 10
-154.77919
 20
100.42836
 30
0.0
 11
-155.279205
 21
100.42836
 31
0.0
  0
LINE
  5
62
100
AcDbEntity
  8
LY_3
390
0
  6
CONTINUOUS
 62
     3
100
AcDbLine
 10
-155.279343
 20
100.428421
 30
0.0
 11
-155.279343
 21
108.727829
 31
0.0
  0
LINE
  5
63
100
AcDbEntity
  8
LY_3
390
0
  6
CONTINUOUS
 62
     3
100
AcDbLine
 10
-156.679245
 20
108.727829
 30
0.0
 11
-156.679245
 21
109.928482
 31
0.0
  0
LINE
  5
64
100
AcDbEntity
  8
LY_3
390
0
  6
CONTINUOUS
 62
     3
100
AcDbLine
 10
-154.779343
 20
34.928482
 30
0.0
 11
-154.779343
 21
100.426559
 31
0.0
  0
LINE
  5
65
100
AcDbEntity
  8
LY_3
390
0
  6
CONTINUOUS
 62
     3
100
AcDbLine
 10
-155.279343
 20
108.727829
 30
0.0
 11
-156.679245
 21
108.727829
 31
0.0
  0
LINE
  5
66
100
AcDbEntity
  8
LY_3
390
0
  6
CONTINUOUS
 62
     3
100
AcDbLine
 10
-155.279343
 20
26.428421
 30
0.0
 11
-154.779343
 21
26.428421
 31
0.0
  0
LINE
  5
67
100
AcDbEntity
  8
LY_3
390
0
  6
CONTINUOUS
 62
     3
100
AcDbLine
 10
-154.779343
 20
26.428421
 30
0.0
 11
-154.779343
 21
34.928467
 31
0.0
  0
LINE
  5
68
100
AcDbEntity
  8
LY_3
390
0
  6
CONTINUOUS
 62
     3
100
AcDbLine
 10
-147.57933
 20
106.678421
 30
0.0
 11
-155.279343
 21
106.678421
 31
0.0
  0
LINE
  5
69
100
AcDbEntity
  8
LY_3
390
0
  6
CONTINUOUS
 62
     3
100
AcDbLine
 10
-147.57933
 20
97.678421
 30
0.0
 11
-154.779343
 21
97.678421
 31
0.0
  0
LINE
  5
6A
100
AcDbEntity
  8
LY_3
390
0
  6
CONTINUOUS
 62
     3
100
AcDbLine
 10
-70.279694
 20
-40.070923
 30
0.0
 11
-150.348724
 21
-40.070923
 31
0.0
  0
LINE
  5
6B
100
AcDbEntity
  8
LY_3
390
0
  6
CONTINUOUS
 62
     3
100
AcDbLine
 10
-155.279495
 20
-28.570145
 30
0.0
 11
-157.279495
 21
-28.570145
 31
0.0
  0
LINE
  5
6C
100
AcDbEntity
  8
LY_3
390
0
  6
CONTINUOUS
 62
     3
100
AcDbLine
 10
-160.279831
 20
-36.770676
 30
0.0
 11
-160.279831
 21
-31.570724
 31
0.0
  0
LINE
  5
6D
100
AcDbEntity
  8
LY_3
390
0
  6
CONTINUOUS
 62
     3
100
AcDbLine
 10
-159.278817
 20
-37.770512
 30
0.0
 11
-160.278885
 21
-36.770448
 31
0.0
  0
LINE
  5
6E
100
AcDbEntity
  8
LY_3
390
0
  6
CONTINUOUS
 62
     3
100
AcDbLine
 10
-160.278715
 20
-31.57045
 30
0.0
 11
-157.278699
 21
-28.570416
 31
0.0
  0
LINE
  5
6F
100
AcDbEntity
  8
LY_3
390
0
  6
CONTINUOUS
 62
     3
100
AcDbLine
 10
-155.279343
 20
-28.570145
 30
0.0
 11
-155.279343
 21
26.428421
 31
0.0
  0
LINE
  5
70
100
AcDbEntity
  8
LY_3
390
0
  6
CONTINUOUS
 62
     3
100
AcDbLine
 10
-154.679321
 20
-35.570145
 30
0.0
 11
-156.979767
 21
-35.570145
 31
0.0
  0
LINE
  5
71
100
AcDbEntity
  8
LY_3
390
0
  6
CONTINUOUS
 62
     3
100
AcDbLine
 10
-156.979782
 20
-36.77066
 30
0.0
 11
-156.979782
 21
-35.570709
 31
0.0
  0
LINE
  5
72
100
AcDbEntity
  8
LY_3
390
0
  6
CONTINUOUS
 62
     3
100
AcDbLine
 10
-157.979767
 20
-37.770096
 30
0.0
 11
-159.279572
 21
-37.770096
 31
0.0
  0
LINE
  5
73
100
AcDbEntity
  8
LY_3
390
0
  6
CONTINUOUS
 62
     3
100
AcDbLine
 10
-156.978917
 20
-36.770615
 30
0.0
 11
-157.978991
 21
-37.770673
 31
0.0
  0
LINE
  5
74
100
AcDbEntity
  8
LY_3
390
0
  6
CONTINUOUS
 62
     3
100
AcDbLine
 10
-154.679292
 20
-35.570148
 30
0.0
 11
-152.946794
 21
-38.570923
 31
0.0
  0
LINE
  5
75
100
AcDbEntity
  8
LY_3
390
0
  6
CONTINUOUS
 62
     3
100
AcDbLine
 10
-71.078613
 20
-14.074371
 30
0.0
 11
-71.078613
 21
-9.074371
 31
0.0
  0
LINE
  5
76
100
AcDbEntity
  8
LY_3
390
0
  6
CONTINUOUS
 62
     3
100
AcDbLine
 10
-71.078613
 20
-14.074417
 30
0.0
 11
-70.279053
 21
-14.074417
 31
0.0
  0
LINE
  5
77
100
AcDbEntity
  8
LY_3
390
0
  6
CONTINUOUS
 62
     3
100
AcDbLine
 10
-71.078514
 20
-9.074321
 30
0.0
 11
-70.278724
 21
-9.074327
 31
0.0
  0
LINE
  5
78
100
AcDbEntity
  8
LY_3
390
0
  6
CONTINUOUS
 62
     3
100
AcDbLine
 10
-75.277817
 20
-6.067673
 30
0.0
 11
-75.277817
 21
-17.067734
 31
0.0
  0
LINE
  5
79
100
AcDbEntity
  8
LY_3
390
0
  6
CONTINUOUS
 62
     3
100
AcDbLine
 10
-75.277054
 20
-17.067764
 30
0.0
 11
-77.276566
 21
-17.067764
 31
0.0
  0
LINE
  5
7A
100
AcDbEntity
  8
LY_3
390
0
  6
CONTINUOUS
 62
     3
100
AcDbLine
 10
-77.276566
 20
-6.067703
 30
0.0
 11
-75.277054
 21
-6.067703
 31
0.0
  0
LINE
  5
7B
100
AcDbEntity
  8
LY_3
390
0
  6
CONTINUOUS
 62
     3
100
AcDbLine
 10
-77.276825
 20
-6.067657
 30
0.0
 11
-77.276825
 21
-17.067719
 31
0.0
  0
LINE
  5
7C
100
AcDbEntity
  8
LY_3
390
0
  6
CONTINUOUS
 62
     3
100
AcDbLine
 10
-153.956848
 20
-36.821487
 30
0.0
 11
-147.579315
 21
-36.821487
 31
0.0
  0
LINE
  5
7D
100
AcDbEntity
  8
LY_3
390
0
  6
CONTINUOUS
 62
     3
100
AcDbLine
 10
-155.279343
 20
-27.821487
 30
0.0
 11
-147.579315
 21
-27.821487
 31
0.0
  0
LINE
  5
7E
100
AcDbEntity
  8
LY_3
390
0
  6
CONTINUOUS
 62
     3
100
AcDbLine
 10
-140.280731
 20
94.928406
 30
0.0
 11
-140.280731
 21
54.928406
 31
0.0
  0
LINE
  5
7F
100
AcDbEntity
  8
LY_3
390
0
  6
CONTINUOUS
 62
     3
100
AcDbLine
 10
-138.280746
 20
94.928406
 30
0.0
 11
-140.280746
 21
94.928406
 31
0.0
  0
LINE
  5
80
100
AcDbEntity
  8
LY_3
390
0
  6
CONTINUOUS
 62
     3
100
AcDbLine
 10
-138.280746
 20
54.928421
 30
0.0
 11
-140.280746
 21
54.928421
 31
0.0
  0
LINE
  5
81
100
AcDbEntity
  8
LY_3
390
0
  6
CONTINUOUS
 62
     3
100
AcDbLine
 10
-138.280731
 20
94.928406
 30
0.0
 11
-138.280731
 21
54.928406
 31
0.0
  0
LINE
  5
82
100
AcDbEntity
  8
LY_3
390
0
  6
CONTINUOUS
 62
     3
100
AcDbLine
 10
-84.280731
 20
94.928406
 30
0.0
 11
-84.280731
 21
54.928406
 31
0.0
  0
LINE
  5
83
100
AcDbEntity
  8
LY_3
390
0
  6
CONTINUOUS
 62
     3
100
AcDbLine
 10
-82.280746
 20
94.928406
 30
0.0
 11
-84.280746
 21
94.928406
 31
0.0
  0
LINE
  5
84
100
AcDbEntity
  8
LY_3
390
0
  6
CONTINUOUS
 62
     3
100
AcDbLine
 10
-82.280746
 20
54.928421
 30
0.0
 11
-84.280746
 21
54.928421
 31
0.0
  0
LINE
  5
85
100
AcDbEntity
  8
LY_3
390
0
  6
CONTINUOUS
 62
     3
100
AcDbLine
 10
-82.280731
 20
94.928406
 30
0.0
 11
-82.280731
 21
54.928406
 31
0.0
  0
LINE
  5
86
100
AcDbEntity
  8
LY_3
390
0
  6
CONTINUOUS
 62
     3
100
AcDbLine
 10
-140.280716
 20
14.928528
 30
0.0
 11
-140.280716
 21
-25.071472
 31
0.0
  0
LINE
  5
87
100
AcDbEntity
  8
LY_3
390
0
  6
CONTINUOUS
 62
     3
100
AcDbLine
 10
-138.280731
 20
14.928528
 30
0.0
 11
-140.280731
 21
14.928528
 31
0.0
  0
LINE
  5
88
100
AcDbEntity
  8
LY_3
390
0
  6
CONTINUOUS
 62
     3
100
AcDbLine
 10
-138.280731
 20
-25.071457
 30
0.0
 11
-140.280731
 21
-25.071457
 31
0.0
  0
LINE
  5
89
100
AcDbEntity
  8
LY_3
390
0
  6
CONTINUOUS
 62
     3
100
AcDbLine
 10
-138.280716
 20
14.928528
 30
0.0
 11
-138.280716
 21
-25.071472
 31
0.0
  0
LINE
  5
8A
100
AcDbEntity
  8
LY_3
390
0
  6
CONTINUOUS
 62
     3
100
AcDbLine
 10
-84.280716
 20
14.928528
 30
0.0
 11
-84.280716
 21
-25.071472
 31
0.0
  0
LINE
  5
8B
100
AcDbEntity
  8
LY_3
390
0
  6
CONTINUOUS
 62
     3
100
AcDbLine
 10
-82.280731
 20
14.928528
 30
0.0
 11
-84.280731
 21
14.928528
 31
0.0
  0
LINE
  5
8C
100
AcDbEntity
  8
LY_3
390
0
  6
CONTINUOUS
 62
     3
100
AcDbLine
 10
-82.280731
 20
-25.071457
 30
0.0
 11
-84.280731
 21
-25.071457
 31
0.0
  0
LINE
  5
8D
100
AcDbEntity
  8
LY_3
390
0
  6
CONTINUOUS
 62
     3
100
AcDbLine
 10
-82.280716
 20
14.928528
 30
0.0
 11
-82.280716
 21
-25.071472
 31
0.0
  0
LINE
  5
8E
100
AcDbEntity
  8
LY_3
390
0
  6
CONTINUOUS
 62
     3
100
AcDbLine
 10
-136.280731
 20
94.928406
 30
0.0
 11
-136.280731
 21
54.928406
 31
0.0
  0
LINE
  5
8F
100
AcDbEntity
  8
LY_3
390
0
  6
CONTINUOUS
 62
     3
100
AcDbLine
 10
-134.280746
 20
94.928406
 30
0.0
 11
-136.280746
 21
94.928406
 31
0.0
  0
LINE
  5
90
100
AcDbEntity
  8
LY_3
390
0
  6
CONTINUOUS
 62
     3
100
AcDbLine
 10
-134.280746
 20
54.928421
 30
0.0
 11
-136.280746
 21
54.928421
 31
0.0
  0
LINE
  5
91
100
AcDbEntity
  8
LY_3
390
0
  6
CONTINUOUS
 62
     3
100
AcDbLine
 10
-134.280731
 20
94.928406
 30
0.0
 11
-134.280731
 21
54.928406
 31
0.0
  0
LINE
  5
92
100
AcDbEntity
  8
LY_3
390
0
  6
CONTINUOUS
 62
     3
100
AcDbLine
 10
-134.280716
 20
14.928528
 30
0.0
 11
-134.280716
 21
-25.071472
 31
0.0
  0
LINE
  5
93
100
AcDbEntity
  8
LY_3
390
0
  6
CONTINUOUS
 62
     3
100
AcDbLine
 10
-134.280731
 20
-25.071457
 30
0.0
 11
-136.280731
 21
-25.071457
 31
0.0
  0
LINE
  5
94
100
AcDbEntity
  8
LY_3
390
0
  6
CONTINUOUS
 62
     3
100
AcDbLine
 10
-134.280731
 20
14.928528
 30
0.0
 11
-136.280731
 21
14.928528
 31
0.0
  0
LINE
  5
95
100
AcDbEntity
  8
LY_3
390
0
  6
CONTINUOUS
 62
     3
100
AcDbLine
 10
-136.280716
 20
14.928528
 30
0.0
 11
-136.280716
 21
-25.071472
 31
0.0
  0
LINE
  5
96
100
AcDbEntity
  8
LY_3
390
0
  6
CONTINUOUS
 62
     3
100
AcDbLine
 10
-132.280731
 20
94.928406
 30
0.0
 11
-132.280731
 21
54.928406
 31
0.0
  0
LINE
  5
97
100
AcDbEntity
  8
LY_3
390
0
  6
CONTINUOUS
 62
     3
100
AcDbLine
 10
-130.280746
 20
94.928406
 30
0.0
 11
-132.280746
 21
94.928406
 31
0.0
  0
LINE
  5
98
100
AcDbEntity
  8
LY_3
390
0
  6
CONTINUOUS
 62
     3
100
AcDbLine
 10
-130.280746
 20
54.928421
 30
0.0
 11
-132.280746
 21
54.928421
 31
0.0
  0
LINE
  5
99
100
AcDbEntity
  8
LY_3
390
0
  6
CONTINUOUS
 62
     3
100
AcDbLine
 10
-130.280731
 20
94.928406
 30
0.0
 11
-130.280731
 21
54.928406
 31
0.0
  0
LINE
  5
9A
100
AcDbEntity
  8
LY_3
390
0
  6
CONTINUOUS
 62
     3
100
AcDbLine
 10
-130.280716
 20
14.928528
 30
0.0
 11
-130.280716
 21
-25.071472
 31
0.0
  0
LINE
  5
9B
100
AcDbEntity
  8
LY_3
390
0
  6
CONTINUOUS
 62
     3
100
AcDbLine
 10
-130.280731
 20
-25.071457
 30
0.0
 11
-132.280731
 21
-25.071457
 31
0.0
  0
LINE
  5
9C
100
AcDbEntity
  8
LY_3
390
0
  6
CONTINUOUS
 62
     3
100
AcDbLine
 10
-130.280731
 20
14.928528
 30
0.0
 11
-132.280731
 21
14.928528
 31
0.0
  0
LINE
  5
9D
100
AcDbEntity
  8
LY_3
390
0
  6
CONTINUOUS
 62
     3
100
AcDbLine
 10
-132.280716
 20
14.928528
 30
0.0
 11
-132.280716
 21
-25.071472
 31
0.0
  0
LINE
  5
9E
100
AcDbEntity
  8
LY_3
390
0
  6
CONTINUOUS
 62
     3
100
AcDbLine
 10
-128.280731
 20
94.928406
 30
0.0
 11
-128.280731
 21
54.928406
 31
0.0
  0
LINE
  5
9F
100
AcDbEntity
  8
LY_3
390
0
  6
CONTINUOUS
 62
     3
100
AcDbLine
 10
-126.280746
 20
94.928406
 30
0.0
 11
-128.280746
 21
94.928406
 31
0.0
  0
LINE
  5
A0
100
AcDbEntity
  8
LY_3
390
0
  6
CONTINUOUS
 62
     3
100
AcDbLine
 10
-126.280746
 20
54.928421
 30
0.0
 11
-128.280746
 21
54.928421
 31
0.0
  0
LINE
  5
A1
100
AcDbEntity
  8
LY_3
390
0
  6
CONTINUOUS
 62
     3
100
AcDbLine
 10
-126.280731
 20
94.928406
 30
0.0
 11
-126.280731
 21
54.928406
 31
0.0
  0
LINE
  5
A2
100
AcDbEntity
  8
LY_3
390
0
  6
CONTINUOUS
 62
     3
100
AcDbLine
 10
-126.280716
 20
14.928528
 30
0.0
 11
-126.280716
 21
-25.071472
 31
0.0
  0
LINE
  5
A3
100
AcDbEntity
  8
LY_3
390
0
  6
CONTINUOUS
 62
     3
100
AcDbLine
 10
-126.280731
 20
-25.071457
 30
0.0
 11
-128.280731
 21
-25.071457
 31
0.0
  0
LINE
  5
A4
100
AcDbEntity
  8
LY_3
390
0
  6
CONTINUOUS
 62
     3
100
AcDbLine
 10
-126.280731
 20
14.928528
 30
0.0
 11
-128.280731
 21
14.928528
 31
0.0
  0
LINE
  5
A5
100
AcDbEntity
  8
LY_3
390
0
  6
CONTINUOUS
 62
     3
100
AcDbLine
 10
-128.280716
 20
14.928528
 30
0.0
 11
-128.280716
 21
-25.071472
 31
0.0
  0
LINE
  5
A6
100
AcDbEntity
  8
LY_3
390
0
  6
CONTINUOUS
 62
     3
100
AcDbLine
 10
-124.280731
 20
94.928406
 30
0.0
 11
-124.280731
 21
54.928406
 31
0.0
  0
LINE
  5
A7
100
AcDbEntity
  8
LY_3
390
0
  6
CONTINUOUS
 62
     3
100
AcDbLine
 10
-122.280746
 20
94.928406
 30
0.0
 11
-124.280746
 21
94.928406
 31
0.0
  0
LINE
  5
A8
100
AcDbEntity
  8
LY_3
390
0
  6
CONTINUOUS
 62
     3
100
AcDbLine
 10
-122.280746
 20
54.928421
 30
0.0
 11
-124.280746
 21
54.928421
 31
0.0
  0
LINE
  5
A9
100
AcDbEntity
  8
LY_3
390
0
  6
CONTINUOUS
 62
     3
100
AcDbLine
 10
-122.280731
 20
94.928406
 30
0.0
 11
-122.280731
 21
54.928406
 31
0.0
  0
LINE
  5
AA
100
AcDbEntity
  8
LY_3
390
0
  6
CONTINUOUS
 62
     3
100
AcDbLine
 10
-122.280716
 20
14.928528
 30
0.0
 11
-122.280716
 21
-25.071472
 31
0.0
  0
LINE
  5
AB
100
AcDbEntity
  8
LY_3
390
0
  6
CONTINUOUS
 62
     3
100
AcDbLine
 10
-122.280731
 20
-25.071457
 30
0.0
 11
-124.280731
 21
-25.071457
 31
0.0
  0
LINE
  5
AC
100
AcDbEntity
  8
LY_3
390
0
  6
CONTINUOUS
 62
     3
100
AcDbLine
 10
-122.280731
 20
14.928528
 30
0.0
 11
-124.280731
 21
14.928528
 31
0.0
  0
LINE
  5
AD
100
AcDbEntity
  8
LY_3
390
0
  6
CONTINUOUS
 62
     3
100
AcDbLine
 10
-124.280716
 20
14.928528
 30
0.0
 11
-124.280716
 21
-25.071472
 31
0.0
  0
LINE
  5
AE
100
AcDbEntity
  8
LY_3
390
0
  6
CONTINUOUS
 62
     3
100
AcDbLine
 10
-120.280731
 20
94.928406
 30
0.0
 11
-120.280731
 21
54.928406
 31
0.0
  0
LINE
  5
AF
100
AcDbEntity
  8
LY_3
390
0
  6
CONTINUOUS
 62
     3
100
AcDbLine
 10
-118.280746
 20
94.928406
 30
0.0
 11
-120.280746
 21
94.928406
 31
0.0
  0
LINE
  5
B0
100
AcDbEntity
  8
LY_3
390
0
  6
CONTINUOUS
 62
     3
100
AcDbLine
 10
-118.280746
 20
54.928421
 30
0.0
 11
-120.280746
 21
54.928421
 31
0.0
  0
LINE
  5
B1
100
AcDbEntity
  8
LY_3
390
0
  6
CONTINUOUS
 62
     3
100
AcDbLine
 10
-118.280731
 20
94.928406
 30
0.0
 11
-118.280731
 21
54.928406
 31
0.0
  0
LINE
  5
B2
100
AcDbEntity
  8
LY_3
390
0
  6
CONTINUOUS
 62
     3
100
AcDbLine
 10
-118.280716
 20
14.928528
 30
0.0
 11
-118.280716
 21
-25.071472
 31
0.0
  0
LINE
  5
B3
100
AcDbEntity
  8
LY_3
390
0
  6
CONTINUOUS
 62
     3
100
AcDbLine
 10
-118.280731
 20
-25.071457
 30
0.0
 11
-120.280731
 21
-25.071457
 31
0.0
  0
LINE
  5
B4
100
AcDbEntity
  8
LY_3
390
0
  6
CONTINUOUS
 62
     3
100
AcDbLine
 10
-118.280731
 20
14.928528
 30
0.0
 11
-120.280731
 21
14.928528
 31
0.0
  0
LINE
  5
B5
100
AcDbEntity
  8
LY_3
390
0
  6
CONTINUOUS
 62
     3
100
AcDbLine
 10
-120.280716
 20
14.928528
 30
0.0
 11
-120.280716
 21
-25.071472
 31
0.0
  0
LINE
  5
B6
100
AcDbEntity
  8
LY_3
390
0
  6
CONTINUOUS
 62
     3
100
AcDbLine
 10
-116.280731
 20
94.928406
 30
0.0
 11
-116.280731
 21
54.928406
 31
0.0
  0
LINE
  5
B7
100
AcDbEntity
  8
LY_3
390
0
  6
CONTINUOUS
 62
     3
100
AcDbLine
 10
-114.280746
 20
94.928406
 30
0.0
 11
-116.280746
 21
94.928406
 31
0.0
  0
LINE
  5
B8
100
AcDbEntity
  8
LY_3
390
0
  6
CONTINUOUS
 62
     3
100
AcDbLine
 10
-114.280746
 20
54.928421
 30
0.0
 11
-116.280746
 21
54.928421
 31
0.0
  0
LINE
  5
B9
100
AcDbEntity
  8
LY_3
390
0
  6
CONTINUOUS
 62
     3
100
AcDbLine
 10
-114.280731
 20
94.928406
 30
0.0
 11
-114.280731
 21
54.928406
 31
0.0
  0
LINE
  5
BA
100
AcDbEntity
  8
LY_3
390
0
  6
CONTINUOUS
 62
     3
100
AcDbLine
 10
-114.280716
 20
14.928528
 30
0.0
 11
-114.280716
 21
-25.071472
 31
0.0
  0
LINE
  5
BB
100
AcDbEntity
  8
LY_3
390
0
  6
CONTINUOUS
 62
     3
100
AcDbLine
 10
-114.280731
 20
-25.071457
 30
0.0
 11
-116.280731
 21
-25.071457
 31
0.0
  0
LINE
  5
BC
100
AcDbEntity
  8
LY_3
390
0
  6
CONTINUOUS
 62
     3
100
AcDbLine
 10
-114.280731
 20
14.928528
 30
0.0
 11
-116.280731
 21
14.928528
 31
0.0
  0
LINE
  5
BD
100
AcDbEntity
  8
LY_3
390
0
  6
CONTINUOUS
 62
     3
100
AcDbLine
 10
-116.280716
 20
14.928528
 30
0.0
 11
-116.280716
 21
-25.071472
 31
0.0
  0
LINE
  5
BE
100
AcDbEntity
  8
LY_3
390
0
  6
CONTINUOUS
 62
     3
100
AcDbLine
 10
-112.280731
 20
94.928406
 30
0.0
 11
-112.280731
 21
54.928406
 31
0.0
  0
LINE
  5
BF
100
AcDbEntity
  8
LY_3
390
0
  6
CONTINUOUS
 62
     3
100
AcDbLine
 10
-110.280746
 20
94.928406
 30
0.0
 11
-112.280746
 21
94.928406
 31
0.0
  0
LINE
  5
C0
100
AcDbEntity
  8
LY_3
390
0
  6
CONTINUOUS
 62
     3
100
AcDbLine
 10
-110.280746
 20
54.928421
 30
0.0
 11
-112.280746
 21
54.928421
 31
0.0
  0
LINE
  5
C1
100
AcDbEntity
  8
LY_3
390
0
  6
CONTINUOUS
 62
     3
100
AcDbLine
 10
-110.280731
 20
94.928406
 30
0.0
 11
-110.280731
 21
54.928406
 31
0.0
  0
LINE
  5
C2
100
AcDbEntity
  8
LY_3
390
0
  6
CONTINUOUS
 62
     3
100
AcDbLine
 10
-110.280716
 20
14.928528
 30
0.0
 11
-110.280716
 21
-25.071472
 31
0.0
  0
LINE
  5
C3
100
AcDbEntity
  8
LY_3
390
0
  6
CONTINUOUS
 62
     3
100
AcDbLine
 10
-110.280731
 20
-25.071457
 30
0.0
 11
-112.280731
 21
-25.071457
 31
0.0
  0
LINE
  5
C4
100
AcDbEntity
  8
LY_3
390
0
  6
CONTINUOUS
 62
     3
100
AcDbLine
 10
-110.280731
 20
14.928528
 30
0.0
 11
-112.280731
 21
14.928528
 31
0.0
  0
LINE
  5
C5
100
AcDbEntity
  8
LY_3
390
0
  6
CONTINUOUS
 62
     3
100
AcDbLine
 10
-112.280716
 20
14.928528
 30
0.0
 11
-112.280716
 21
-25.071472
 31
0.0
  0
LINE
  5
C6
100
AcDbEntity
  8
LY_3
390
0
  6
CONTINUOUS
 62
     3
100
AcDbLine
 10
-108.280731
 20
94.928406
 30
0.0
 11
-108.280731
 21
54.928406
 31
0.0
  0
LINE
  5
C7
100
AcDbEntity
  8
LY_3
390
0
  6
CONTINUOUS
 62
     3
100
AcDbLine
 10
-106.280746
 20
94.928406
 30
0.0
 11
-108.280746
 21
94.928406
 31
0.0
  0
LINE
  5
C8
100
AcDbEntity
  8
LY_3
390
0
  6
CONTINUOUS
 62
     3
100
AcDbLine
 10
-106.280746
 20
54.928421
 30
0.0
 11
-108.280746
 21
54.928421
 31
0.0
  0
LINE
  5
C9
100
AcDbEntity
  8
LY_3
390
0
  6
CONTINUOUS
 62
     3
100
AcDbLine
 10
-106.280731
 20
94.928406
 30
0.0
 11
-106.280731
 21
54.928406
 31
0.0
  0
LINE
  5
CA
100
AcDbEntity
  8
LY_3
390
0
  6
CONTINUOUS
 62
     3
100
AcDbLine
 10
-106.280716
 20
14.928528
 30
0.0
 11
-106.280716
 21
-25.071472
 31
0.0
  0
LINE
  5
CB
100
AcDbEntity
  8
LY_3
390
0
  6
CONTINUOUS
 62
     3
100
AcDbLine
 10
-106.280731
 20
-25.071457
 30
0.0
 11
-108.280731
 21
-25.071457
 31
0.0
  0
LINE
  5
CC
100
AcDbEntity
  8
LY_3
390
0
  6
CONTINUOUS
 62
     3
100
AcDbLine
 10
-106.280731
 20
14.928528
 30
0.0
 11
-108.280731
 21
14.928528
 31
0.0
  0
LINE
  5
CD
100
AcDbEntity
  8
LY_3
390
0
  6
CONTINUOUS
 62
     3
100
AcDbLine
 10
-108.280716
 20
14.928528
 30
0.0
 11
-108.280716
 21
-25.071472
 31
0.0
  0
LINE
  5
CE
100
AcDbEntity
  8
LY_3
390
0
  6
CONTINUOUS
 62
     3
100
AcDbLine
 10
-104.280731
 20
94.928406
 30
0.0
 11
-104.280731
 21
54.928406
 31
0.0
  0
LINE
  5
CF
100
AcDbEntity
  8
LY_3
390
0
  6
CONTINUOUS
 62
     3
100
AcDbLine
 10
-102.280746
 20
94.928406
 30
0.0
 11
-104.280746
 21
94.928406
 31
0.0
  0
LINE
  5
D0
100
AcDbEntity
  8
LY_3
390
0
  6
CONTINUOUS
 62
     3
100
AcDbLine
 10
-102.280746
 20
54.928421
 30
0.0
 11
-104.280746
 21
54.928421
 31
0.0
  0
LINE
  5
D1
100
AcDbEntity
  8
LY_3
390
0
  6
CONTINUOUS
 62
     3
100
AcDbLine
 10
-102.280731
 20
94.928406
 30
0.0
 11
-102.280731
 21
54.928406
 31
0.0
  0
LINE
  5
D2
100
AcDbEntity
  8
LY_3
390
0
  6
CONTINUOUS
 62
     3
100
AcDbLine
 10
-102.280716
 20
14.928528
 30
0.0
 11
-102.280716
 21
-25.071472
 31
0.0
  0
LINE
  5
D3
100
AcDbEntity
  8
LY_3
390
0
  6
CONTINUOUS
 62
     3
100
AcDbLine
 10
-102.280731
 20
-25.071457
 30
0.0
 11
-104.280731
 21
-25.071457
 31
0.0
  0
LINE
  5
D4
100
AcDbEntity
  8
LY_3
390
0
  6
CONTINUOUS
 62
     3
100
AcDbLine
 10
-102.280731
 20
14.928528
 30
0.0
 11
-104.280731
 21
14.928528
 31
0.0
  0
LINE
  5
D5
100
AcDbEntity
  8
LY_3
390
0
  6
CONTINUOUS
 62
     3
100
AcDbLine
 10
-104.280716
 20
14.928528
 30
0.0
 11
-104.280716
 21
-25.071472
 31
0.0
  0
LINE
  5
D6
100
AcDbEntity
  8
LY_3
390
0
  6
CONTINUOUS
 62
     3
100
AcDbLine
 10
-100.280731
 20
94.928406
 30
0.0
 11
-100.280731
 21
54.928406
 31
0.0
  0
LINE
  5
D7
100
AcDbEntity
  8
LY_3
390
0
  6
CONTINUOUS
 62
     3
100
AcDbLine
 10
-98.280746
 20
94.928406
 30
0.0
 11
-100.280746
 21
94.928406
 31
0.0
  0
LINE
  5
D8
100
AcDbEntity
  8
LY_3
390
0
  6
CONTINUOUS
 62
     3
100
AcDbLine
 10
-98.280746
 20
54.928421
 30
0.0
 11
-100.280746
 21
54.928421
 31
0.0
  0
LINE
  5
D9
100
AcDbEntity
  8
LY_3
390
0
  6
CONTINUOUS
 62
     3
100
AcDbLine
 10
-98.280731
 20
94.928406
 30
0.0
 11
-98.280731
 21
54.928406
 31
0.0
  0
LINE
  5
DA
100
AcDbEntity
  8
LY_3
390
0
  6
CONTINUOUS
 62
     3
100
AcDbLine
 10
-98.280716
 20
14.928528
 30
0.0
 11
-98.280716
 21
-25.071472
 31
0.0
  0
LINE
  5
DB
100
AcDbEntity
  8
LY_3
390
0
  6
CONTINUOUS
 62
     3
100
AcDbLine
 10
-98.280731
 20
-25.071457
 30
0.0
 11
-100.280731
 21
-25.071457
 31
0.0
  0
LINE
  5
DC
100
AcDbEntity
  8
LY_3
390
0
  6
CONTINUOUS
 62
     3
100
AcDbLine
 10
-98.280731
 20
14.928528
 30
0.0
 11
-100.280731
 21
14.928528
 31
0.0
  0
LINE
  5
DD
100
AcDbEntity
  8
LY_3
390
0
  6
CONTINUOUS
 62
     3
100
AcDbLine
 10
-100.280716
 20
14.928528
 30
0.0
 11
-100.280716
 21
-25.071472
 31
0.0
  0
LINE
  5
DE
100
AcDbEntity
  8
LY_3
390
0
  6
CONTINUOUS
 62
     3
100
AcDbLine
 10
-96.280731
 20
94.928406
 30
0.0
 11
-96.280731
 21
54.928406
 31
0.0
  0
LINE
  5
DF
100
AcDbEntity
  8
LY_3
390
0
  6
CONTINUOUS
 62
     3
100
AcDbLine
 10
-94.280746
 20
94.928406
 30
0.0
 11
-96.280746
 21
94.928406
 31
0.0
  0
LINE
  5
E0
100
AcDbEntity
  8
LY_3
390
0
  6
CONTINUOUS
 62
     3
100
AcDbLine
 10
-94.280746
 20
54.928421
 30
0.0
 11
-96.280746
 21
54.928421
 31
0.0
  0
LINE
  5
E1
100
AcDbEntity
  8
LY_3
390
0
  6
CONTINUOUS
 62
     3
100
AcDbLine
 10
-94.280731
 20
94.928406
 30
0.0
 11
-94.280731
 21
54.928406
 31
0.0
  0
LINE
  5
E2
100
AcDbEntity
  8
LY_3
390
0
  6
CONTINUOUS
 62
     3
100
AcDbLine
 10
-94.280716
 20
14.928528
 30
0.0
 11
-94.280716
 21
-25.071472
 31
0.0
  0
LINE
  5
E3
100
AcDbEntity
  8
LY_3
390
0
  6
CONTINUOUS
 62
     3
100
AcDbLine
 10
-94.280731
 20
-25.071457
 30
0.0
 11
-96.280731
 21
-25.071457
 31
0.0
  0
LINE
  5
E4
100
AcDbEntity
  8
LY_3
390
0
  6
CONTINUOUS
 62
     3
100
AcDbLine
 10
-94.280731
 20
14.928528
 30
0.0
 11
-96.280731
 21
14.928528
 31
0.0
  0
LINE
  5
E5
100
AcDbEntity
  8
LY_3
390
0
  6
CONTINUOUS
 62
     3
100
AcDbLine
 10
-96.280716
 20
14.928528
 30
0.0
 11
-96.280716
 21
-25.071472
 31
0.0
  0
LINE
  5
E6
100
AcDbEntity
  8
LY_3
390
0
  6
CONTINUOUS
 62
     3
100
AcDbLine
 10
-92.280731
 20
94.928406
 30
0.0
 11
-92.280731
 21
54.928406
 31
0.0
  0
LINE
  5
E7
100
AcDbEntity
  8
LY_3
390
0
  6
CONTINUOUS
 62
     3
100
AcDbLine
 10
-90.280746
 20
94.928406
 30
0.0
 11
-92.280746
 21
94.928406
 31
0.0
  0
LINE
  5
E8
100
AcDbEntity
  8
LY_3
390
0
  6
CONTINUOUS
 62
     3
100
AcDbLine
 10
-90.280746
 20
54.928421
 30
0.0
 11
-92.280746
 21
54.928421
 31
0.0
  0
LINE
  5
E9
100
AcDbEntity
  8
LY_3
390
0
  6
CONTINUOUS
 62
     3
100
AcDbLine
 10
-90.280731
 20
94.928406
 30
0.0
 11
-90.280731
 21
54.928406
 31
0.0
  0
LINE
  5
EA
100
AcDbEntity
  8
LY_3
390
0
  6
CONTINUOUS
 62
     3
100
AcDbLine
 10
-90.280716
 20
14.928528
 30
0.0
 11
-90.280716
 21
-25.071472
 31
0.0
  0
LINE
  5
EB
100
AcDbEntity
  8
LY_3
390
0
  6
CONTINUOUS
 62
     3
100
AcDbLine
 10
-90.280731
 20
-25.071457
 30
0.0
 11
-92.280731
 21
-25.071457
 31
0.0
  0
LINE
  5
EC
100
AcDbEntity
  8
LY_3
390
0
  6
CONTINUOUS
 62
     3
100
AcDbLine
 10
-90.280731
 20
14.928528
 30
0.0
 11
-92.280731
 21
14.928528
 31
0.0
  0
LINE
  5
ED
100
AcDbEntity
  8
LY_3
390
0
  6
CONTINUOUS
 62
     3
100
AcDbLine
 10
-92.280716
 20
14.928528
 30
0.0
 11
-92.280716
 21
-25.071472
 31
0.0
  0
LINE
  5
EE
100
AcDbEntity
  8
LY_3
390
0
  6
CONTINUOUS
 62
     3
100
AcDbLine
 10
-88.280731
 20
94.928406
 30
0.0
 11
-88.280731
 21
54.928406
 31
0.0
  0
LINE
  5
EF
100
AcDbEntity
  8
LY_3
390
0
  6
CONTINUOUS
 62
     3
100
AcDbLine
 10
-86.280746
 20
94.928406
 30
0.0
 11
-88.280746
 21
94.928406
 31
0.0
  0
LINE
  5
F0
100
AcDbEntity
  8
LY_3
390
0
  6
CONTINUOUS
 62
     3
100
AcDbLine
 10
-86.280746
 20
54.928421
 30
0.0
 11
-88.280746
 21
54.928421
 31
0.0
  0
LINE
  5
F1
100
AcDbEntity
  8
LY_3
390
0
  6
CONTINUOUS
 62
     3
100
AcDbLine
 10
-86.280731
 20
94.928406
 30
0.0
 11
-86.280731
 21
54.928406
 31
0.0
  0
LINE
  5
F2
100
AcDbEntity
  8
LY_3
390
0
  6
CONTINUOUS
 62
     3
100
AcDbLine
 10
-86.280716
 20
14.928528
 30
0.0
 11
-86.280716
 21
-25.071472
 31
0.0
  0
LINE
  5
F3
100
AcDbEntity
  8
LY_3
390
0
  6
CONTINUOUS
 62
     3
100
AcDbLine
 10
-86.280731
 20
-25.071457
 30
0.0
 11
-88.280731
 21
-25.071457
 31
0.0
  0
LINE
  5
F4
100
AcDbEntity
  8
LY_3
390
0
  6
CONTINUOUS
 62
     3
100
AcDbLine
 10
-86.280731
 20
14.928528
 30
0.0
 11
-88.280731
 21
14.928528
 31
0.0
  0
LINE
  5
F5
100
AcDbEntity
  8
LY_3
390
0
  6
CONTINUOUS
 62
     3
100
AcDbLine
 10
-88.280716
 20
14.928528
 30
0.0
 11
-88.280716
 21
-25.071472
 31
0.0
  0
LINE
  5
F6
100
AcDbEntity
  8
LY_3
390
0
  6
CONTINUOUS
 62
     3
100
AcDbLine
 10
-160.280945
 20
-111.571762
 30
0.0
 11
-70.279541
 21
-111.571762
 31
0.0
  0
LINE
  5
F7
100
AcDbEntity
  8
LY_3
390
0
  6
CONTINUOUS
 62
     3
100
AcDbLine
 10
-160.28096
 20
-62.071793
 30
0.0
 11
-154.67926
 21
-62.071793
 31
0.0
  0
LINE
  5
F8
100
AcDbEntity
  8
LY_3
390
0
  6
CONTINUOUS
 62
     3
100
AcDbLine
 10
-148.281235
 20
-108.571762
 30
0.0
 11
-146.281235
 21
-108.571762
 31
0.0
  0
LINE
  5
F9
100
AcDbEntity
  8
LY_3
390
0
  6
CONTINUOUS
 62
     3
100
AcDbLine
 10
-144.281235
 20
-108.571762
 30
0.0
 11
-142.281235
 21
-108.571762
 31
0.0
  0
LINE
  5
FA
100
AcDbEntity
  8
LY_3
390
0
  6
CONTINUOUS
 62
     3
100
AcDbLine
 10
-70.279556
 20
-85.071533
 30
0.0
 11
-70.279556
 21
-58.578568
 31
0.0
  0
LINE
  5
FB
100
AcDbEntity
  8
LY_3
390
0
  6
CONTINUOUS
 62
     3
100
AcDbLine
 10
-142.281494
 20
-105.778702
 30
0.0
 11
-144.281494
 21
-105.778702
 31
0.0
  0
LINE
  5
FC
100
AcDbEntity
  8
LY_3
390
0
  6
CONTINUOUS
 62
     3
100
AcDbLine
 10
-142.281494
 20
-104.778702
 30
0.0
 11
-144.281494
 21
-104.778702
 31
0.0
  0
LINE
  5
FD
100
AcDbEntity
  8
LY_3
390
0
  6
CONTINUOUS
 62
     3
100
AcDbLine
 10
-146.281494
 20
-105.778702
 30
0.0
 11
-148.281494
 21
-105.778702
 31
0.0
  0
LINE
  5
FE
100
AcDbEntity
  8
LY_3
390
0
  6
CONTINUOUS
 62
     3
100
AcDbLine
 10
-146.281494
 20
-104.778702
 30
0.0
 11
-148.281494
 21
-104.778702
 31
0.0
  0
LINE
  5
FF
100
AcDbEntity
  8
LY_3
390
0
  6
CONTINUOUS
 62
     3
100
AcDbLine
 10
-144.280762
 20
-101.971176
 30
0.0
 11
-142.280762
 21
-101.971176
 31
0.0
  0
LINE
  5
100
100
AcDbEntity
  8
LY_3
390
0
  6
CONTINUOUS
 62
     3
100
AcDbLine
 10
-144.280762
 20
-102.971176
 30
0.0
 11
-142.280762
 21
-102.971176
 31
0.0
  0
LINE
  5
101
100
AcDbEntity
  8
LY_3
390
0
  6
CONTINUOUS
 62
     3
100
AcDbLine
 10
-148.280762
 20
-101.971176
 30
0.0
 11
-146.280762
 21
-101.971176
 31
0.0
  0
LINE
  5
102
100
AcDbEntity
  8
LY_3
390
0
  6
CONTINUOUS
 62
     3
100
AcDbLine
 10
-148.280762
 20
-102.971176
 30
0.0
 11
-146.280762
 21
-102.971176
 31
0.0
  0
LINE
  5
103
100
AcDbEntity
  8
LY_3
390
0
  6
CONTINUOUS
 62
     3
100
AcDbLine
 10
-140.281235
 20
-108.571762
 30
0.0
 11
-138.281235
 21
-108.571762
 31
0.0
  0
LINE
  5
104
100
AcDbEntity
  8
LY_3
390
0
  6
CONTINUOUS
 62
     3
100
AcDbLine
 10
-138.281494
 20
-105.778702
 30
0.0
 11
-140.281494
 21
-105.778702
 31
0.0
  0
LINE
  5
105
100
AcDbEntity
  8
LY_3
390
0
  6
CONTINUOUS
 62
     3
100
AcDbLine
 10
-138.281494
 20
-104.778702
 30
0.0
 11
-140.281494
 21
-104.778702
 31
0.0
  0
LINE
  5
106
100
AcDbEntity
  8
LY_3
390
0
  6
CONTINUOUS
 62
     3
100
AcDbLine
 10
-140.280762
 20
-101.971176
 30
0.0
 11
-138.280762
 21
-101.971176
 31
0.0
  0
LINE
  5
107
100
AcDbEntity
  8
LY_3
390
0
  6
CONTINUOUS
 62
     3
100
AcDbLine
 10
-140.280762
 20
-102.971176
 30
0.0
 11
-138.280762
 21
-102.971176
 31
0.0
  0
LINE
  5
108
100
AcDbEntity
  8
LY_3
390
0
  6
CONTINUOUS
 62
     3
100
AcDbLine
 10
-136.281235
 20
-108.571762
 30
0.0
 11
-134.281235
 21
-108.571762
 31
0.0
  0
LINE
  5
109
100
AcDbEntity
  8
LY_3
390
0
  6
CONTINUOUS
 62
     3
100
AcDbLine
 10
-134.281494
 20
-105.778702
 30
0.0
 11
-136.281494
 21
-105.778702
 31
0.0
  0
LINE
  5
10A
100
AcDbEntity
  8
LY_3
390
0
  6
CONTINUOUS
 62
     3
100
AcDbLine
 10
-134.281494
 20
-104.778702
 30
0.0
 11
-136.281494
 21
-104.778702
 31
0.0
  0
LINE
  5
10B
100
AcDbEntity
  8
LY_3
390
0
  6
CONTINUOUS
 62
     3
100
AcDbLine
 10
-132.281235
 20
-108.571762
 30
0.0
 11
-130.281235
 21
-108.571762
 31
0.0
  0
LINE
  5
10C
100
AcDbEntity
  8
LY_3
390
0
  6
CONTINUOUS
 62
     3
100
AcDbLine
 10
-130.281494
 20
-105.778702
 30
0.0
 11
-132.281494
 21
-105.778702
 31
0.0
  0
LINE
  5
10D
100
AcDbEntity
  8
LY_3
390
0
  6
CONTINUOUS
 62
     3
100
AcDbLine
 10
-130.281494
 20
-104.778702
 30
0.0
 11
-132.281494
 21
-104.778702
 31
0.0
  0
LINE
  5
10E
100
AcDbEntity
  8
LY_3
390
0
  6
CONTINUOUS
 62
     3
100
AcDbLine
 10
-128.281235
 20
-108.571762
 30
0.0
 11
-126.281235
 21
-108.571762
 31
0.0
  0
LINE
  5
10F
100
AcDbEntity
  8
LY_3
390
0
  6
CONTINUOUS
 62
     3
100
AcDbLine
 10
-126.281494
 20
-105.778702
 30
0.0
 11
-128.281494
 21
-105.778702
 31
0.0
  0
LINE
  5
110
100
AcDbEntity
  8
LY_3
390
0
  6
CONTINUOUS
 62
     3
100
AcDbLine
 10
-126.281494
 20
-104.778702
 30
0.0
 11
-128.281494
 21
-104.778702
 31
0.0
  0
LINE
  5
111
100
AcDbEntity
  8
LY_3
390
0
  6
CONTINUOUS
 62
     3
100
AcDbLine
 10
-124.281235
 20
-108.571762
 30
0.0
 11
-122.281235
 21
-108.571762
 31
0.0
  0
LINE
  5
112
100
AcDbEntity
  8
LY_3
390
0
  6
CONTINUOUS
 62
     3
100
AcDbLine
 10
-122.281494
 20
-105.778702
 30
0.0
 11
-124.281494
 21
-105.778702
 31
0.0
  0
LINE
  5
113
100
AcDbEntity
  8
LY_3
390
0
  6
CONTINUOUS
 62
     3
100
AcDbLine
 10
-122.281494
 20
-104.778702
 30
0.0
 11
-124.281494
 21
-104.778702
 31
0.0
  0
LINE
  5
114
100
AcDbEntity
  8
LY_3
390
0
  6
CONTINUOUS
 62
     3
100
AcDbLine
 10
-120.281235
 20
-108.571762
 30
0.0
 11
-118.281235
 21
-108.571762
 31
0.0
  0
LINE
  5
115
100
AcDbEntity
  8
LY_3
390
0
  6
CONTINUOUS
 62
     3
100
AcDbLine
 10
-118.281494
 20
-105.778702
 30
0.0
 11
-120.281494
 21
-105.778702
 31
0.0
  0
LINE
  5
116
100
AcDbEntity
  8
LY_3
390
0
  6
CONTINUOUS
 62
     3
100
AcDbLine
 10
-118.281494
 20
-104.778702
 30
0.0
 11
-120.281494
 21
-104.778702
 31
0.0
  0
LINE
  5
117
100
AcDbEntity
  8
LY_3
390
0
  6
CONTINUOUS
 62
     3
100
AcDbLine
 10
-116.281235
 20
-108.571762
 30
0.0
 11
-114.281235
 21
-108.571762
 31
0.0
  0
LINE
  5
118
100
AcDbEntity
  8
LY_3
390
0
  6
CONTINUOUS
 62
     3
100
AcDbLine
 10
-114.281494
 20
-105.778702
 30
0.0
 11
-116.281494
 21
-105.778702
 31
0.0
  0
LINE
  5
119
100
AcDbEntity
  8
LY_3
390
0
  6
CONTINUOUS
 62
     3
100
AcDbLine
 10
-114.281494
 20
-104.778702
 30
0.0
 11
-116.281494
 21
-104.778702
 31
0.0
  0
LINE
  5
11A
100
AcDbEntity
  8
LY_3
390
0
  6
CONTINUOUS
 62
     3
100
AcDbLine
 10
-112.281235
 20
-108.571762
 30
0.0
 11
-110.281235
 21
-108.571762
 31
0.0
  0
LINE
  5
11B
100
AcDbEntity
  8
LY_3
390
0
  6
CONTINUOUS
 62
     3
100
AcDbLine
 10
-110.281494
 20
-105.778702
 30
0.0
 11
-112.281494
 21
-105.778702
 31
0.0
  0
LINE
  5
11C
100
AcDbEntity
  8
LY_3
390
0
  6
CONTINUOUS
 62
     3
100
AcDbLine
 10
-110.281494
 20
-104.778702
 30
0.0
 11
-112.281494
 21
-104.778702
 31
0.0
  0
LINE
  5
11D
100
AcDbEntity
  8
LY_3
390
0
  6
CONTINUOUS
 62
     3
100
AcDbLine
 10
-84.28125
 20
-108.571518
 30
0.0
 11
-82.28125
 21
-108.571518
 31
0.0
  0
LINE
  5
11E
100
AcDbEntity
  8
LY_3
390
0
  6
CONTINUOUS
 62
     3
100
AcDbLine
 10
-82.281509
 20
-105.778458
 30
0.0
 11
-84.281509
 21
-105.778458
 31
0.0
  0
LINE
  5
11F
100
AcDbEntity
  8
LY_3
390
0
  6
CONTINUOUS
 62
     3
100
AcDbLine
 10
-82.281509
 20
-104.778458
 30
0.0
 11
-84.281509
 21
-104.778458
 31
0.0
  0
LINE
  5
120
100
AcDbEntity
  8
LY_3
390
0
  6
CONTINUOUS
 62
     3
100
AcDbLine
 10
-108.281235
 20
-108.571762
 30
0.0
 11
-106.281235
 21
-108.571762
 31
0.0
  0
LINE
  5
121
100
AcDbEntity
  8
LY_3
390
0
  6
CONTINUOUS
 62
     3
100
AcDbLine
 10
-106.281494
 20
-105.778702
 30
0.0
 11
-108.281494
 21
-105.778702
 31
0.0
  0
LINE
  5
122
100
AcDbEntity
  8
LY_3
390
0
  6
CONTINUOUS
 62
     3
100
AcDbLine
 10
-106.281494
 20
-104.778702
 30
0.0
 11
-108.281494
 21
-104.778702
 31
0.0
  0
LINE
  5
123
100
AcDbEntity
  8
LY_3
390
0
  6
CONTINUOUS
 62
     3
100
AcDbLine
 10
-104.281235
 20
-108.571518
 30
0.0
 11
-102.281235
 21
-108.571518
 31
0.0
  0
LINE
  5
124
100
AcDbEntity
  8
LY_3
390
0
  6
CONTINUOUS
 62
     3
100
AcDbLine
 10
-102.281494
 20
-105.778458
 30
0.0
 11
-104.281494
 21
-105.778458
 31
0.0
  0
LINE
  5
125
100
AcDbEntity
  8
LY_3
390
0
  6
CONTINUOUS
 62
     3
100
AcDbLine
 10
-102.281494
 20
-104.778458
 30
0.0
 11
-104.281494
 21
-104.778458
 31
0.0
  0
LINE
  5
126
100
AcDbEntity
  8
LY_3
390
0
  6
CONTINUOUS
 62
     3
100
AcDbLine
 10
-100.281235
 20
-108.571518
 30
0.0
 11
-98.281235
 21
-108.571518
 31
0.0
  0
LINE
  5
127
100
AcDbEntity
  8
LY_3
390
0
  6
CONTINUOUS
 62
     3
100
AcDbLine
 10
-98.281494
 20
-105.778458
 30
0.0
 11
-100.281494
 21
-105.778458
 31
0.0
  0
LINE
  5
128
100
AcDbEntity
  8
LY_3
390
0
  6
CONTINUOUS
 62
     3
100
AcDbLine
 10
-98.281494
 20
-104.778458
 30
0.0
 11
-100.281494
 21
-104.778458
 31
0.0
  0
LINE
  5
129
100
AcDbEntity
  8
LY_3
390
0
  6
CONTINUOUS
 62
     3
100
AcDbLine
 10
-155.279266
 20
-69.571594
 30
0.0
 11
-155.279266
 21
-100.571548
 31
0.0
  0
LINE
  5
12A
100
AcDbEntity
  8
LY_3
390
0
  6
CONTINUOUS
 62
     3
100
AcDbLine
 10
-160.28096
 20
-62.071793
 30
0.0
 11
-160.28096
 21
-68.571564
 31
0.0
  0
LINE
  5
12B
100
AcDbEntity
  8
LY_3
390
0
  6
CONTINUOUS
 62
     3
100
AcDbLine
 10
-160.280945
 20
-101.571564
 30
0.0
 11
-160.280945
 21
-111.571747
 31
0.0
  0
LINE
  5
12C
100
AcDbEntity
  8
LY_3
390
0
  6
CONTINUOUS
 62
     3
100
AcDbLine
 10
-159.280945
 20
-100.571548
 30
0.0
 11
-159.280945
 21
-111.571716
 31
0.0
  0
LINE
  5
12D
100
AcDbEntity
  8
LY_3
390
0
  6
CONTINUOUS
 62
     3
100
AcDbLine
 10
-156.980301
 20
-111.571762
 30
0.0
 11
-156.980301
 21
-100.571426
 31
0.0
  0
LINE
  5
12E
100
AcDbEntity
  8
LY_3
390
0
  6
CONTINUOUS
 62
     3
100
AcDbLine
 10
-156.980301
 20
-69.571457
 30
0.0
 11
-156.980301
 21
-62.071838
 31
0.0
  0
LINE
  5
12F
100
AcDbEntity
  8
LY_3
390
0
  6
CONTINUOUS
 62
     3
100
AcDbLine
 10
-157.980301
 20
-69.571594
 30
0.0
 11
-157.980301
 21
-62.071838
 31
0.0
  0
LINE
  5
130
100
AcDbEntity
  8
LY_3
390
0
  6
CONTINUOUS
 62
     3
100
AcDbLine
 10
-159.28096
 20
-62.071808
 30
0.0
 11
-159.28096
 21
-69.571548
 31
0.0
  0
LINE
  5
131
100
AcDbEntity
  8
LY_3
390
0
  6
CONTINUOUS
 62
     3
100
AcDbLine
 10
-157.980301
 20
-111.571716
 30
0.0
 11
-157.980301
 21
-100.571426
 31
0.0
  0
LINE
  5
132
100
AcDbEntity
  8
LY_3
390
0
  6
CONTINUOUS
 62
     3
100
AcDbLine
 10
-159.280945
 20
-69.571564
 30
0.0
 11
-154.679276
 21
-69.571564
 31
0.0
  0
LINE
  5
133
100
AcDbEntity
  8
LY_3
390
0
  6
CONTINUOUS
 62
     3
100
AcDbLine
 10
-154.679245
 20
-100.571548
 30
0.0
 11
-159.28093
 21
-100.571548
 31
0.0
  0
LINE
  5
134
100
AcDbEntity
  8
LY_3
390
0
  6
CONTINUOUS
 62
     3
100
AcDbLine
 10
-159.280791
 20
-100.571502
 30
0.0
 11
-160.280807
 21
-101.571531
 31
0.0
  0
LINE
  5
135
100
AcDbEntity
  8
LY_3
390
0
  6
CONTINUOUS
 62
     3
100
AcDbLine
 10
-159.280893
 20
-69.571551
 30
0.0
 11
-160.2809
 21
-68.571562
 31
0.0
  0
LINE
  5
136
100
AcDbEntity
  8
LY_3
390
0
  6
CONTINUOUS
 62
     3
100
AcDbLine
 10
-156.679245
 20
-69.571594
 30
0.0
 11
-156.679245
 21
-100.571548
 31
0.0
  0
LINE
  5
137
100
AcDbEntity
  8
LY_3
390
0
  6
CONTINUOUS
 62
     3
100
AcDbLine
 10
-146.281219
 20
-61.571289
 30
0.0
 11
-148.281219
 21
-61.571289
 31
0.0
  0
LINE
  5
138
100
AcDbEntity
  8
LY_3
390
0
  6
CONTINUOUS
 62
     3
100
AcDbLine
 10
-142.281219
 20
-61.571289
 30
0.0
 11
-144.281219
 21
-61.571289
 31
0.0
  0
LINE
  5
139
100
AcDbEntity
  8
LY_3
390
0
  6
CONTINUOUS
 62
     3
100
AcDbLine
 10
-144.281494
 20
-64.364258
 30
0.0
 11
-142.281494
 21
-64.364258
 31
0.0
  0
LINE
  5
13A
100
AcDbEntity
  8
LY_3
390
0
  6
CONTINUOUS
 62
     3
100
AcDbLine
 10
-144.281494
 20
-65.364258
 30
0.0
 11
-142.281494
 21
-65.364258
 31
0.0
  0
LINE
  5
13B
100
AcDbEntity
  8
LY_3
390
0
  6
CONTINUOUS
 62
     3
100
AcDbLine
 10
-148.281494
 20
-64.364258
 30
0.0
 11
-146.281494
 21
-64.364258
 31
0.0
  0
LINE
  5
13C
100
AcDbEntity
  8
LY_3
390
0
  6
CONTINUOUS
 62
     3
100
AcDbLine
 10
-148.281494
 20
-65.364258
 30
0.0
 11
-146.281494
 21
-65.364258
 31
0.0
  0
LINE
  5
13D
100
AcDbEntity
  8
LY_3
390
0
  6
CONTINUOUS
 62
     3
100
AcDbLine
 10
-142.280746
 20
-68.171829
 30
0.0
 11
-144.280746
 21
-68.171829
 31
0.0
  0
LINE
  5
13E
100
AcDbEntity
  8
LY_3
390
0
  6
CONTINUOUS
 62
     3
100
AcDbLine
 10
-142.280746
 20
-67.171829
 30
0.0
 11
-144.280746
 21
-67.171829
 31
0.0
  0
LINE
  5
13F
100
AcDbEntity
  8
LY_3
390
0
  6
CONTINUOUS
 62
     3
100
AcDbLine
 10
-146.280746
 20
-68.171829
 30
0.0
 11
-148.280746
 21
-68.171829
 31
0.0
  0
LINE
  5
140
100
AcDbEntity
  8
LY_3
390
0
  6
CONTINUOUS
 62
     3
100
AcDbLine
 10
-146.280746
 20
-67.171829
 30
0.0
 11
-148.280746
 21
-67.171829
 31
0.0
  0
LINE
  5
141
100
AcDbEntity
  8
LY_3
390
0
  6
CONTINUOUS
 62
     3
100
AcDbLine
 10
-138.281219
 20
-61.571289
 30
0.0
 11
-140.281219
 21
-61.571289
 31
0.0
  0
LINE
  5
142
100
AcDbEntity
  8
LY_3
390
0
  6
CONTINUOUS
 62
     3
100
AcDbLine
 10
-140.281494
 20
-64.364258
 30
0.0
 11
-138.281494
 21
-64.364258
 31
0.0
  0
LINE
  5
143
100
AcDbEntity
  8
LY_3
390
0
  6
CONTINUOUS
 62
     3
100
AcDbLine
 10
-140.281494
 20
-65.364258
 30
0.0
 11
-138.281494
 21
-65.364258
 31
0.0
  0
LINE
  5
144
100
AcDbEntity
  8
LY_3
390
0
  6
CONTINUOUS
 62
     3
100
AcDbLine
 10
-138.280746
 20
-68.171829
 30
0.0
 11
-140.280746
 21
-68.171829
 31
0.0
  0
LINE
  5
145
100
AcDbEntity
  8
LY_3
390
0
  6
CONTINUOUS
 62
     3
100
AcDbLine
 10
-138.280746
 20
-67.171829
 30
0.0
 11
-140.280746
 21
-67.171829
 31
0.0
  0
LINE
  5
146
100
AcDbEntity
  8
LY_3
390
0
  6
CONTINUOUS
 62
     3
100
AcDbLine
 10
-134.281219
 20
-61.571289
 30
0.0
 11
-136.281219
 21
-61.571289
 31
0.0
  0
LINE
  5
147
100
AcDbEntity
  8
LY_3
390
0
  6
CONTINUOUS
 62
     3
100
AcDbLine
 10
-136.281494
 20
-64.364258
 30
0.0
 11
-134.281494
 21
-64.364258
 31
0.0
  0
LINE
  5
148
100
AcDbEntity
  8
LY_3
390
0
  6
CONTINUOUS
 62
     3
100
AcDbLine
 10
-136.281494
 20
-65.364258
 30
0.0
 11
-134.281494
 21
-65.364258
 31
0.0
  0
LINE
  5
149
100
AcDbEntity
  8
LY_3
390
0
  6
CONTINUOUS
 62
     3
100
AcDbLine
 10
-134.280746
 20
-68.171829
 30
0.0
 11
-136.280746
 21
-68.171829
 31
0.0
  0
LINE
  5
14A
100
AcDbEntity
  8
LY_3
390
0
  6
CONTINUOUS
 62
     3
100
AcDbLine
 10
-134.280746
 20
-67.171829
 30
0.0
 11
-136.280746
 21
-67.171829
 31
0.0
  0
LINE
  5
14B
100
AcDbEntity
  8
LY_3
390
0
  6
CONTINUOUS
 62
     3
100
AcDbLine
 10
-130.281219
 20
-61.571289
 30
0.0
 11
-132.281219
 21
-61.571289
 31
0.0
  0
LINE
  5
14C
100
AcDbEntity
  8
LY_3
390
0
  6
CONTINUOUS
 62
     3
100
AcDbLine
 10
-132.281494
 20
-64.364258
 30
0.0
 11
-130.281494
 21
-64.364258
 31
0.0
  0
LINE
  5
14D
100
AcDbEntity
  8
LY_3
390
0
  6
CONTINUOUS
 62
     3
100
AcDbLine
 10
-132.281494
 20
-65.364258
 30
0.0
 11
-130.281494
 21
-65.364258
 31
0.0
  0
LINE
  5
14E
100
AcDbEntity
  8
LY_3
390
0
  6
CONTINUOUS
 62
     3
100
AcDbLine
 10
-130.280746
 20
-68.171829
 30
0.0
 11
-132.280746
 21
-68.171829
 31
0.0
  0
LINE
  5
14F
100
AcDbEntity
  8
LY_3
390
0
  6
CONTINUOUS
 62
     3
100
AcDbLine
 10
-130.280746
 20
-67.171829
 30
0.0
 11
-132.280746
 21
-67.171829
 31
0.0
  0
LINE
  5
150
100
AcDbEntity
  8
LY_3
390
0
  6
CONTINUOUS
 62
     3
100
AcDbLine
 10
-126.281219
 20
-61.571289
 30
0.0
 11
-128.281219
 21
-61.571289
 31
0.0
  0
LINE
  5
151
100
AcDbEntity
  8
LY_3
390
0
  6
CONTINUOUS
 62
     3
100
AcDbLine
 10
-128.281494
 20
-64.364258
 30
0.0
 11
-126.281494
 21
-64.364258
 31
0.0
  0
LINE
  5
152
100
AcDbEntity
  8
LY_3
390
0
  6
CONTINUOUS
 62
     3
100
AcDbLine
 10
-128.281494
 20
-65.364258
 30
0.0
 11
-126.281494
 21
-65.364258
 31
0.0
  0
LINE
  5
153
100
AcDbEntity
  8
LY_3
390
0
  6
CONTINUOUS
 62
     3
100
AcDbLine
 10
-126.280746
 20
-68.171829
 30
0.0
 11
-128.280746
 21
-68.171829
 31
0.0
  0
LINE
  5
154
100
AcDbEntity
  8
LY_3
390
0
  6
CONTINUOUS
 62
     3
100
AcDbLine
 10
-126.280746
 20
-67.171829
 30
0.0
 11
-128.280746
 21
-67.171829
 31
0.0
  0
LINE
  5
155
100
AcDbEntity
  8
LY_3
390
0
  6
CONTINUOUS
 62
     3
100
AcDbLine
 10
-122.281219
 20
-61.571289
 30
0.0
 11
-124.281219
 21
-61.571289
 31
0.0
  0
LINE
  5
156
100
AcDbEntity
  8
LY_3
390
0
  6
CONTINUOUS
 62
     3
100
AcDbLine
 10
-124.281494
 20
-64.364258
 30
0.0
 11
-122.281494
 21
-64.364258
 31
0.0
  0
LINE
  5
157
100
AcDbEntity
  8
LY_3
390
0
  6
CONTINUOUS
 62
     3
100
AcDbLine
 10
-124.281494
 20
-65.364258
 30
0.0
 11
-122.281494
 21
-65.364258
 31
0.0
  0
LINE
  5
158
100
AcDbEntity
  8
LY_3
390
0
  6
CONTINUOUS
 62
     3
100
AcDbLine
 10
-122.280746
 20
-68.171829
 30
0.0
 11
-124.280746
 21
-68.171829
 31
0.0
  0
LINE
  5
159
100
AcDbEntity
  8
LY_3
390
0
  6
CONTINUOUS
 62
     3
100
AcDbLine
 10
-122.280746
 20
-67.171829
 30
0.0
 11
-124.280746
 21
-67.171829
 31
0.0
  0
LINE
  5
15A
100
AcDbEntity
  8
LY_3
390
0
  6
CONTINUOUS
 62
     3
100
AcDbLine
 10
-118.281219
 20
-61.571289
 30
0.0
 11
-120.281219
 21
-61.571289
 31
0.0
  0
LINE
  5
15B
100
AcDbEntity
  8
LY_3
390
0
  6
CONTINUOUS
 62
     3
100
AcDbLine
 10
-120.281494
 20
-64.364258
 30
0.0
 11
-118.281494
 21
-64.364258
 31
0.0
  0
LINE
  5
15C
100
AcDbEntity
  8
LY_3
390
0
  6
CONTINUOUS
 62
     3
100
AcDbLine
 10
-120.281494
 20
-65.364258
 30
0.0
 11
-118.281494
 21
-65.364258
 31
0.0
  0
LINE
  5
15D
100
AcDbEntity
  8
LY_3
390
0
  6
CONTINUOUS
 62
     3
100
AcDbLine
 10
-118.280746
 20
-68.171829
 30
0.0
 11
-120.280746
 21
-68.171829
 31
0.0
  0
LINE
  5
15E
100
AcDbEntity
  8
LY_3
390
0
  6
CONTINUOUS
 62
     3
100
AcDbLine
 10
-118.280746
 20
-67.171829
 30
0.0
 11
-120.280746
 21
-67.171829
 31
0.0
  0
LINE
  5
15F
100
AcDbEntity
  8
LY_3
390
0
  6
CONTINUOUS
 62
     3
100
AcDbLine
 10
-114.281219
 20
-61.571289
 30
0.0
 11
-116.281219
 21
-61.571289
 31
0.0
  0
LINE
  5
160
100
AcDbEntity
  8
LY_3
390
0
  6
CONTINUOUS
 62
     3
100
AcDbLine
 10
-116.281494
 20
-64.364258
 30
0.0
 11
-114.281494
 21
-64.364258
 31
0.0
  0
LINE
  5
161
100
AcDbEntity
  8
LY_3
390
0
  6
CONTINUOUS
 62
     3
100
AcDbLine
 10
-116.281494
 20
-65.364258
 30
0.0
 11
-114.281494
 21
-65.364258
 31
0.0
  0
LINE
  5
162
100
AcDbEntity
  8
LY_3
390
0
  6
CONTINUOUS
 62
     3
100
AcDbLine
 10
-114.280746
 20
-68.171829
 30
0.0
 11
-116.280746
 21
-68.171829
 31
0.0
  0
LINE
  5
163
100
AcDbEntity
  8
LY_3
390
0
  6
CONTINUOUS
 62
     3
100
AcDbLine
 10
-114.280746
 20
-67.171829
 30
0.0
 11
-116.280746
 21
-67.171829
 31
0.0
  0
LINE
  5
164
100
AcDbEntity
  8
LY_3
390
0
  6
CONTINUOUS
 62
     3
100
AcDbLine
 10
-110.281219
 20
-61.571289
 30
0.0
 11
-112.281219
 21
-61.571289
 31
0.0
  0
LINE
  5
165
100
AcDbEntity
  8
LY_3
390
0
  6
CONTINUOUS
 62
     3
100
AcDbLine
 10
-112.281494
 20
-64.364258
 30
0.0
 11
-110.281494
 21
-64.364258
 31
0.0
  0
LINE
  5
166
100
AcDbEntity
  8
LY_3
390
0
  6
CONTINUOUS
 62
     3
100
AcDbLine
 10
-112.281494
 20
-65.364258
 30
0.0
 11
-110.281494
 21
-65.364258
 31
0.0
  0
LINE
  5
167
100
AcDbEntity
  8
LY_3
390
0
  6
CONTINUOUS
 62
     3
100
AcDbLine
 10
-110.280746
 20
-68.171829
 30
0.0
 11
-112.280746
 21
-68.171829
 31
0.0
  0
LINE
  5
168
100
AcDbEntity
  8
LY_3
390
0
  6
CONTINUOUS
 62
     3
100
AcDbLine
 10
-110.280746
 20
-67.171829
 30
0.0
 11
-112.280746
 21
-67.171829
 31
0.0
  0
LINE
  5
169
100
AcDbEntity
  8
LY_3
390
0
  6
CONTINUOUS
 62
     3
100
AcDbLine
 10
-82.281235
 20
-61.571533
 30
0.0
 11
-84.281235
 21
-61.571533
 31
0.0
  0
LINE
  5
16A
100
AcDbEntity
  8
LY_3
390
0
  6
CONTINUOUS
 62
     3
100
AcDbLine
 10
-84.281494
 20
-64.364502
 30
0.0
 11
-82.281494
 21
-64.364502
 31
0.0
  0
LINE
  5
16B
100
AcDbEntity
  8
LY_3
390
0
  6
CONTINUOUS
 62
     3
100
AcDbLine
 10
-84.281494
 20
-65.364502
 30
0.0
 11
-82.281494
 21
-65.364502
 31
0.0
  0
LINE
  5
16C
100
AcDbEntity
  8
LY_3
390
0
  6
CONTINUOUS
 62
     3
100
AcDbLine
 10
-82.280762
 20
-68.172073
 30
0.0
 11
-84.280762
 21
-68.172073
 31
0.0
  0
LINE
  5
16D
100
AcDbEntity
  8
LY_3
390
0
  6
CONTINUOUS
 62
     3
100
AcDbLine
 10
-82.280762
 20
-67.172073
 30
0.0
 11
-84.280762
 21
-67.172073
 31
0.0
  0
LINE
  5
16E
100
AcDbEntity
  8
LY_3
390
0
  6
CONTINUOUS
 62
     3
100
AcDbLine
 10
-106.281219
 20
-61.571289
 30
0.0
 11
-108.281219
 21
-61.571289
 31
0.0
  0
LINE
  5
16F
100
AcDbEntity
  8
LY_3
390
0
  6
CONTINUOUS
 62
     3
100
AcDbLine
 10
-108.281494
 20
-64.364258
 30
0.0
 11
-106.281494
 21
-64.364258
 31
0.0
  0
LINE
  5
170
100
AcDbEntity
  8
LY_3
390
0
  6
CONTINUOUS
 62
     3
100
AcDbLine
 10
-108.281494
 20
-65.364258
 30
0.0
 11
-106.281494
 21
-65.364258
 31
0.0
  0
LINE
  5
171
100
AcDbEntity
  8
LY_3
390
0
  6
CONTINUOUS
 62
     3
100
AcDbLine
 10
-106.280746
 20
-68.171829
 30
0.0
 11
-108.280746
 21
-68.171829
 31
0.0
  0
LINE
  5
172
100
AcDbEntity
  8
LY_3
390
0
  6
CONTINUOUS
 62
     3
100
AcDbLine
 10
-106.280746
 20
-67.171829
 30
0.0
 11
-108.280746
 21
-67.171829
 31
0.0
  0
LINE
  5
173
100
AcDbEntity
  8
LY_3
390
0
  6
CONTINUOUS
 62
     3
100
AcDbLine
 10
-102.281219
 20
-61.571533
 30
0.0
 11
-104.281219
 21
-61.571533
 31
0.0
  0
LINE
  5
174
100
AcDbEntity
  8
LY_3
390
0
  6
CONTINUOUS
 62
     3
100
AcDbLine
 10
-104.281494
 20
-64.364502
 30
0.0
 11
-102.281494
 21
-64.364502
 31
0.0
  0
LINE
  5
175
100
AcDbEntity
  8
LY_3
390
0
  6
CONTINUOUS
 62
     3
100
AcDbLine
 10
-104.281494
 20
-65.364502
 30
0.0
 11
-102.281494
 21
-65.364502
 31
0.0
  0
LINE
  5
176
100
AcDbEntity
  8
LY_3
390
0
  6
CONTINUOUS
 62
     3
100
AcDbLine
 10
-102.280746
 20
-68.172073
 30
0.0
 11
-104.280746
 21
-68.172073
 31
0.0
  0
LINE
  5
177
100
AcDbEntity
  8
LY_3
390
0
  6
CONTINUOUS
 62
     3
100
AcDbLine
 10
-102.280746
 20
-67.172073
 30
0.0
 11
-104.280746
 21
-67.172073
 31
0.0
  0
LINE
  5
178
100
AcDbEntity
  8
LY_3
390
0
  6
CONTINUOUS
 62
     3
100
AcDbLine
 10
-98.281219
 20
-61.571533
 30
0.0
 11
-100.281219
 21
-61.571533
 31
0.0
  0
LINE
  5
179
100
AcDbEntity
  8
LY_3
390
0
  6
CONTINUOUS
 62
     3
100
AcDbLine
 10
-100.281494
 20
-64.364502
 30
0.0
 11
-98.281494
 21
-64.364502
 31
0.0
  0
LINE
  5
17A
100
AcDbEntity
  8
LY_3
390
0
  6
CONTINUOUS
 62
     3
100
AcDbLine
 10
-100.281494
 20
-65.364502
 30
0.0
 11
-98.281494
 21
-65.364502
 31
0.0
  0
LINE
  5
17B
100
AcDbEntity
  8
LY_3
390
0
  6
CONTINUOUS
 62
     3
100
AcDbLine
 10
-98.280746
 20
-68.172073
 30
0.0
 11
-100.280746
 21
-68.172073
 31
0.0
  0
LINE
  5
17C
100
AcDbEntity
  8
LY_3
390
0
  6
CONTINUOUS
 62
     3
100
AcDbLine
 10
-98.280746
 20
-67.172073
 30
0.0
 11
-100.280746
 21
-67.172073
 31
0.0
  0
LINE
  5
17D
100
AcDbEntity
  8
LY_3
390
0
  6
CONTINUOUS
 62
     3
100
AcDbLine
 10
-147.17926
 20
-80.571533
 30
0.0
 11
-100.284729
 21
-80.571533
 31
0.0
  0
LINE
  5
17E
100
AcDbEntity
  8
LY_3
390
0
  6
CONTINUOUS
 62
     3
100
AcDbLine
 10
-147.17926
 20
-89.571579
 30
0.0
 11
-100.284714
 21
-89.571579
 31
0.0
  0
LINE
  5
17F
100
AcDbEntity
  8
LY_3
390
0
  6
CONTINUOUS
 62
     3
100
AcDbLine
 10
-104.281815
 20
-61.571289
 30
0.0
 11
-104.281815
 21
-78.821533
 31
0.0
  0
LINE
  5
180
100
AcDbEntity
  8
LY_3
390
0
  6
CONTINUOUS
 62
     3
100
AcDbLine
 10
-102.281815
 20
-61.571289
 30
0.0
 11
-102.281815
 21
-78.821533
 31
0.0
  0
LINE
  5
181
100
AcDbEntity
  8
LY_3
390
0
  6
CONTINUOUS
 62
     3
100
AcDbLine
 10
-100.281815
 20
-61.571533
 30
0.0
 11
-100.281815
 21
-108.571518
 31
0.0
  0
LINE
  5
182
100
AcDbEntity
  8
LY_3
390
0
  6
CONTINUOUS
 62
     3
100
AcDbLine
 10
-98.281815
 20
-61.571533
 30
0.0
 11
-98.281815
 21
-108.571518
 31
0.0
  0
LINE
  5
183
100
AcDbEntity
  8
LY_3
390
0
  6
CONTINUOUS
 62
     3
100
AcDbLine
 10
-104.281815
 20
-91.321533
 30
0.0
 11
-104.281815
 21
-108.571762
 31
0.0
  0
LINE
  5
184
100
AcDbEntity
  8
LY_3
390
0
  6
CONTINUOUS
 62
     3
100
AcDbLine
 10
-102.281815
 20
-91.321533
 30
0.0
 11
-102.281815
 21
-108.571762
 31
0.0
  0
LINE
  5
185
100
AcDbEntity
  8
LY_3
390
0
  6
CONTINUOUS
 62
     3
100
AcDbLine
 10
-104.281754
 20
-91.321533
 30
0.0
 11
-102.281754
 21
-91.321533
 31
0.0
  0
LINE
  5
186
100
AcDbEntity
  8
LY_3
390
0
  6
CONTINUOUS
 62
     3
100
AcDbLine
 10
-104.281754
 20
-78.821533
 30
0.0
 11
-102.281754
 21
-78.821533
 31
0.0
  0
LINE
  5
187
100
AcDbEntity
  8
LY_3
390
0
  6
CONTINUOUS
 62
     3
100
AcDbLine
 10
-104.281754
 20
-80.571548
 30
0.0
 11
-104.281754
 21
-89.571579
 31
0.0
  0
LINE
  5
188
100
AcDbEntity
  8
LY_3
390
0
  6
CONTINUOUS
 62
     3
100
AcDbLine
 10
-102.281754
 20
-80.571548
 30
0.0
 11
-102.281754
 21
-89.571579
 31
0.0
  0
LINE
  5
189
100
AcDbEntity
  8
LY_3
390
0
  6
CONTINUOUS
 62
     3
100
AcDbLine
 10
-96.281815
 20
-61.571533
 30
0.0
 11
-96.281815
 21
-108.571518
 31
0.0
  0
LINE
  5
18A
100
AcDbEntity
  8
LY_3
390
0
  6
CONTINUOUS
 62
     3
100
AcDbLine
 10
-94.281815
 20
-61.571533
 30
0.0
 11
-94.281815
 21
-108.571518
 31
0.0
  0
LINE
  5
18B
100
AcDbEntity
  8
LY_3
390
0
  6
CONTINUOUS
 62
     3
100
AcDbLine
 10
-70.279556
 20
-111.571289
 30
0.0
 11
-70.279556
 21
-85.071533
 31
0.0
  0
LINE
  5
18C
100
AcDbEntity
  8
LY_3
390
0
  6
CONTINUOUS
 62
     3
100
AcDbLine
 10
-124.281815
 20
-61.571289
 30
0.0
 11
-124.281815
 21
-78.821533
 31
0.0
  0
LINE
  5
18D
100
AcDbEntity
  8
LY_3
390
0
  6
CONTINUOUS
 62
     3
100
AcDbLine
 10
-122.281815
 20
-61.571289
 30
0.0
 11
-122.281815
 21
-78.821533
 31
0.0
  0
LINE
  5
18E
100
AcDbEntity
  8
LY_3
390
0
  6
CONTINUOUS
 62
     3
100
AcDbLine
 10
-122.281754
 20
-78.821533
 30
0.0
 11
-124.281754
 21
-78.821533
 31
0.0
  0
LINE
  5
18F
100
AcDbEntity
  8
LY_3
390
0
  6
CONTINUOUS
 62
     3
100
AcDbLine
 10
-124.281815
 20
-91.321533
 30
0.0
 11
-124.281815
 21
-108.571762
 31
0.0
  0
LINE
  5
190
100
AcDbEntity
  8
LY_3
390
0
  6
CONTINUOUS
 62
     3
100
AcDbLine
 10
-122.281815
 20
-91.321533
 30
0.0
 11
-122.281815
 21
-108.571762
 31
0.0
  0
LINE
  5
191
100
AcDbEntity
  8
LY_3
390
0
  6
CONTINUOUS
 62
     3
100
AcDbLine
 10
-124.281754
 20
-91.321533
 30
0.0
 11
-122.281754
 21
-91.321533
 31
0.0
  0
LINE
  5
192
100
AcDbEntity
  8
LY_3
390
0
  6
CONTINUOUS
 62
     3
100
AcDbLine
 10
-120.281815
 20
-61.571289
 30
0.0
 11
-120.281815
 21
-78.821533
 31
0.0
  0
LINE
  5
193
100
AcDbEntity
  8
LY_3
390
0
  6
CONTINUOUS
 62
     3
100
AcDbLine
 10
-118.281815
 20
-61.571289
 30
0.0
 11
-118.281815
 21
-78.821533
 31
0.0
  0
LINE
  5
194
100
AcDbEntity
  8
LY_3
390
0
  6
CONTINUOUS
 62
     3
100
AcDbLine
 10
-118.281754
 20
-78.821533
 30
0.0
 11
-120.281754
 21
-78.821533
 31
0.0
  0
LINE
  5
195
100
AcDbEntity
  8
LY_3
390
0
  6
CONTINUOUS
 62
     3
100
AcDbLine
 10
-120.281815
 20
-91.321533
 30
0.0
 11
-120.281815
 21
-108.571762
 31
0.0
  0
LINE
  5
196
100
AcDbEntity
  8
LY_3
390
0
  6
CONTINUOUS
 62
     3
100
AcDbLine
 10
-118.281815
 20
-91.321533
 30
0.0
 11
-118.281815
 21
-108.571762
 31
0.0
  0
LINE
  5
197
100
AcDbEntity
  8
LY_3
390
0
  6
CONTINUOUS
 62
     3
100
AcDbLine
 10
-120.281754
 20
-91.321533
 30
0.0
 11
-118.281754
 21
-91.321533
 31
0.0
  0
LINE
  5
198
100
AcDbEntity
  8
LY_3
390
0
  6
CONTINUOUS
 62
     3
100
AcDbLine
 10
-116.281815
 20
-61.571289
 30
0.0
 11
-116.281815
 21
-78.821533
 31
0.0
  0
LINE
  5
199
100
AcDbEntity
  8
LY_3
390
0
  6
CONTINUOUS
 62
     3
100
AcDbLine
 10
-114.281815
 20
-61.571289
 30
0.0
 11
-114.281815
 21
-78.821533
 31
0.0
  0
LINE
  5
19A
100
AcDbEntity
  8
LY_3
390
0
  6
CONTINUOUS
 62
     3
100
AcDbLine
 10
-114.281754
 20
-78.821533
 30
0.0
 11
-116.281754
 21
-78.821533
 31
0.0
  0
LINE
  5
19B
100
AcDbEntity
  8
LY_3
390
0
  6
CONTINUOUS
 62
     3
100
AcDbLine
 10
-116.281815
 20
-91.321533
 30
0.0
 11
-116.281815
 21
-108.571762
 31
0.0
  0
LINE
  5
19C
100
AcDbEntity
  8
LY_3
390
0
  6
CONTINUOUS
 62
     3
100
AcDbLine
 10
-114.281815
 20
-91.321533
 30
0.0
 11
-114.281815
 21
-108.571762
 31
0.0
  0
LINE
  5
19D
100
AcDbEntity
  8
LY_3
390
0
  6
CONTINUOUS
 62
     3
100
AcDbLine
 10
-116.281754
 20
-91.321533
 30
0.0
 11
-114.281754
 21
-91.321533
 31
0.0
  0
LINE
  5
19E
100
AcDbEntity
  8
LY_3
390
0
  6
CONTINUOUS
 62
     3
100
AcDbLine
 10
-112.281815
 20
-61.571289
 30
0.0
 11
-112.281815
 21
-78.821533
 31
0.0
  0
LINE
  5
19F
100
AcDbEntity
  8
LY_3
390
0
  6
CONTINUOUS
 62
     3
100
AcDbLine
 10
-110.281815
 20
-61.571289
 30
0.0
 11
-110.281815
 21
-78.821533
 31
0.0
  0
LINE
  5
1A0
100
AcDbEntity
  8
LY_3
390
0
  6
CONTINUOUS
 62
     3
100
AcDbLine
 10
-110.281754
 20
-78.821533
 30
0.0
 11
-112.281754
 21
-78.821533
 31
0.0
  0
LINE
  5
1A1
100
AcDbEntity
  8
LY_3
390
0
  6
CONTINUOUS
 62
     3
100
AcDbLine
 10
-112.281815
 20
-91.321533
 30
0.0
 11
-112.281815
 21
-108.571762
 31
0.0
  0
LINE
  5
1A2
100
AcDbEntity
  8
LY_3
390
0
  6
CONTINUOUS
 62
     3
100
AcDbLine
 10
-110.281815
 20
-91.321533
 30
0.0
 11
-110.281815
 21
-108.571762
 31
0.0
  0
LINE
  5
1A3
100
AcDbEntity
  8
LY_3
390
0
  6
CONTINUOUS
 62
     3
100
AcDbLine
 10
-112.281754
 20
-91.321533
 30
0.0
 11
-110.281754
 21
-91.321533
 31
0.0
  0
LINE
  5
1A4
100
AcDbEntity
  8
LY_3
390
0
  6
CONTINUOUS
 62
     3
100
AcDbLine
 10
-108.281815
 20
-61.571289
 30
0.0
 11
-108.281815
 21
-78.821533
 31
0.0
  0
LINE
  5
1A5
100
AcDbEntity
  8
LY_3
390
0
  6
CONTINUOUS
 62
     3
100
AcDbLine
 10
-106.281815
 20
-61.571289
 30
0.0
 11
-106.281815
 21
-78.821533
 31
0.0
  0
LINE
  5
1A6
100
AcDbEntity
  8
LY_3
390
0
  6
CONTINUOUS
 62
     3
100
AcDbLine
 10
-106.281754
 20
-78.821533
 30
0.0
 11
-108.281754
 21
-78.821533
 31
0.0
  0
LINE
  5
1A7
100
AcDbEntity
  8
LY_3
390
0
  6
CONTINUOUS
 62
     3
100
AcDbLine
 10
-108.281815
 20
-91.321533
 30
0.0
 11
-108.281815
 21
-108.571762
 31
0.0
  0
LINE
  5
1A8
100
AcDbEntity
  8
LY_3
390
0
  6
CONTINUOUS
 62
     3
100
AcDbLine
 10
-106.281815
 20
-91.321533
 30
0.0
 11
-106.281815
 21
-108.571762
 31
0.0
  0
LINE
  5
1A9
100
AcDbEntity
  8
LY_3
390
0
  6
CONTINUOUS
 62
     3
100
AcDbLine
 10
-108.281754
 20
-91.321533
 30
0.0
 11
-106.281754
 21
-91.321533
 31
0.0
  0
LINE
  5
1AA
100
AcDbEntity
  8
LY_3
390
0
  6
CONTINUOUS
 62
     3
100
AcDbLine
 10
-124.281754
 20
-80.571548
 30
0.0
 11
-124.281754
 21
-89.571579
 31
0.0
  0
LINE
  5
1AB
100
AcDbEntity
  8
LY_3
390
0
  6
CONTINUOUS
 62
     3
100
AcDbLine
 10
-122.281754
 20
-80.571548
 30
0.0
 11
-122.281754
 21
-89.571579
 31
0.0
  0
LINE
  5
1AC
100
AcDbEntity
  8
LY_3
390
0
  6
CONTINUOUS
 62
     3
100
AcDbLine
 10
-120.281754
 20
-80.571548
 30
0.0
 11
-120.281754
 21
-89.571579
 31
0.0
  0
LINE
  5
1AD
100
AcDbEntity
  8
LY_3
390
0
  6
CONTINUOUS
 62
     3
100
AcDbLine
 10
-118.281754
 20
-80.571548
 30
0.0
 11
-118.281754
 21
-89.571579
 31
0.0
  0
LINE
  5
1AE
100
AcDbEntity
  8
LY_3
390
0
  6
CONTINUOUS
 62
     3
100
AcDbLine
 10
-116.281754
 20
-80.571548
 30
0.0
 11
-116.281754
 21
-89.571579
 31
0.0
  0
LINE
  5
1AF
100
AcDbEntity
  8
LY_3
390
0
  6
CONTINUOUS
 62
     3
100
AcDbLine
 10
-114.281754
 20
-80.571548
 30
0.0
 11
-114.281754
 21
-89.571579
 31
0.0
  0
LINE
  5
1B0
100
AcDbEntity
  8
LY_3
390
0
  6
CONTINUOUS
 62
     3
100
AcDbLine
 10
-112.281754
 20
-80.571548
 30
0.0
 11
-112.281754
 21
-89.571579
 31
0.0
  0
LINE
  5
1B1
100
AcDbEntity
  8
LY_3
390
0
  6
CONTINUOUS
 62
     3
100
AcDbLine
 10
-110.281754
 20
-80.571548
 30
0.0
 11
-110.281754
 21
-89.571579
 31
0.0
  0
LINE
  5
1B2
100
AcDbEntity
  8
LY_3
390
0
  6
CONTINUOUS
 62
     3
100
AcDbLine
 10
-108.281754
 20
-80.571548
 30
0.0
 11
-108.281754
 21
-89.571579
 31
0.0
  0
LINE
  5
1B3
100
AcDbEntity
  8
LY_3
390
0
  6
CONTINUOUS
 62
     3
100
AcDbLine
 10
-106.281754
 20
-80.571548
 30
0.0
 11
-106.281754
 21
-89.571579
 31
0.0
  0
LINE
  5
1B4
100
AcDbEntity
  8
LY_3
390
0
  6
CONTINUOUS
 62
     3
100
AcDbLine
 10
-148.281815
 20
-91.321533
 30
0.0
 11
-148.281815
 21
-108.571762
 31
0.0
  0
LINE
  5
1B5
100
AcDbEntity
  8
LY_3
390
0
  6
CONTINUOUS
 62
     3
100
AcDbLine
 10
-146.281815
 20
-91.321533
 30
0.0
 11
-146.281815
 21
-108.571762
 31
0.0
  0
LINE
  5
1B6
100
AcDbEntity
  8
LY_3
390
0
  6
CONTINUOUS
 62
     3
100
AcDbLine
 10
-148.281754
 20
-91.321533
 30
0.0
 11
-146.281754
 21
-91.321533
 31
0.0
  0
LINE
  5
1B7
100
AcDbEntity
  8
LY_3
390
0
  6
CONTINUOUS
 62
     3
100
AcDbLine
 10
-144.281815
 20
-61.571289
 30
0.0
 11
-144.281815
 21
-78.821533
 31
0.0
  0
LINE
  5
1B8
100
AcDbEntity
  8
LY_3
390
0
  6
CONTINUOUS
 62
     3
100
AcDbLine
 10
-142.281815
 20
-61.571289
 30
0.0
 11
-142.281815
 21
-78.821533
 31
0.0
  0
LINE
  5
1B9
100
AcDbEntity
  8
LY_3
390
0
  6
CONTINUOUS
 62
     3
100
AcDbLine
 10
-142.281754
 20
-78.821533
 30
0.0
 11
-144.281754
 21
-78.821533
 31
0.0
  0
LINE
  5
1BA
100
AcDbEntity
  8
LY_3
390
0
  6
CONTINUOUS
 62
     3
100
AcDbLine
 10
-144.281815
 20
-91.321533
 30
0.0
 11
-144.281815
 21
-108.571762
 31
0.0
  0
LINE
  5
1BB
100
AcDbEntity
  8
LY_3
390
0
  6
CONTINUOUS
 62
     3
100
AcDbLine
 10
-142.281815
 20
-91.321533
 30
0.0
 11
-142.281815
 21
-108.571762
 31
0.0
  0
LINE
  5
1BC
100
AcDbEntity
  8
LY_3
390
0
  6
CONTINUOUS
 62
     3
100
AcDbLine
 10
-144.281754
 20
-91.321533
 30
0.0
 11
-142.281754
 21
-91.321533
 31
0.0
  0
LINE
  5
1BD
100
AcDbEntity
  8
LY_3
390
0
  6
CONTINUOUS
 62
     3
100
AcDbLine
 10
-140.281815
 20
-61.571289
 30
0.0
 11
-140.281815
 21
-78.821533
 31
0.0
  0
LINE
  5
1BE
100
AcDbEntity
  8
LY_3
390
0
  6
CONTINUOUS
 62
     3
100
AcDbLine
 10
-138.281815
 20
-61.571289
 30
0.0
 11
-138.281815
 21
-78.821533
 31
0.0
  0
LINE
  5
1BF
100
AcDbEntity
  8
LY_3
390
0
  6
CONTINUOUS
 62
     3
100
AcDbLine
 10
-138.281754
 20
-78.821533
 30
0.0
 11
-140.281754
 21
-78.821533
 31
0.0
  0
LINE
  5
1C0
100
AcDbEntity
  8
LY_3
390
0
  6
CONTINUOUS
 62
     3
100
AcDbLine
 10
-140.281815
 20
-91.321533
 30
0.0
 11
-140.281815
 21
-108.571762
 31
0.0
  0
LINE
  5
1C1
100
AcDbEntity
  8
LY_3
390
0
  6
CONTINUOUS
 62
     3
100
AcDbLine
 10
-138.281815
 20
-91.321533
 30
0.0
 11
-138.281815
 21
-108.571762
 31
0.0
  0
LINE
  5
1C2
100
AcDbEntity
  8
LY_3
390
0
  6
CONTINUOUS
 62
     3
100
AcDbLine
 10
-140.281754
 20
-91.321533
 30
0.0
 11
-138.281754
 21
-91.321533
 31
0.0
  0
LINE
  5
1C3
100
AcDbEntity
  8
LY_3
390
0
  6
CONTINUOUS
 62
     3
100
AcDbLine
 10
-136.281815
 20
-61.571289
 30
0.0
 11
-136.281815
 21
-78.821533
 31
0.0
  0
LINE
  5
1C4
100
AcDbEntity
  8
LY_3
390
0
  6
CONTINUOUS
 62
     3
100
AcDbLine
 10
-134.281815
 20
-61.571289
 30
0.0
 11
-134.281815
 21
-78.821533
 31
0.0
  0
LINE
  5
1C5
100
AcDbEntity
  8
LY_3
390
0
  6
CONTINUOUS
 62
     3
100
AcDbLine
 10
-134.281754
 20
-78.821533
 30
0.0
 11
-136.281754
 21
-78.821533
 31
0.0
  0
LINE
  5
1C6
100
AcDbEntity
  8
LY_3
390
0
  6
CONTINUOUS
 62
     3
100
AcDbLine
 10
-136.281815
 20
-91.321533
 30
0.0
 11
-136.281815
 21
-108.571762
 31
0.0
  0
LINE
  5
1C7
100
AcDbEntity
  8
LY_3
390
0
  6
CONTINUOUS
 62
     3
100
AcDbLine
 10
-134.281815
 20
-91.321533
 30
0.0
 11
-134.281815
 21
-108.571762
 31
0.0
  0
LINE
  5
1C8
100
AcDbEntity
  8
LY_3
390
0
  6
CONTINUOUS
 62
     3
100
AcDbLine
 10
-136.281754
 20
-91.321533
 30
0.0
 11
-134.281754
 21
-91.321533
 31
0.0
  0
LINE
  5
1C9
100
AcDbEntity
  8
LY_3
390
0
  6
CONTINUOUS
 62
     3
100
AcDbLine
 10
-132.281815
 20
-61.571289
 30
0.0
 11
-132.281815
 21
-78.821533
 31
0.0
  0
LINE
  5
1CA
100
AcDbEntity
  8
LY_3
390
0
  6
CONTINUOUS
 62
     3
100
AcDbLine
 10
-130.281815
 20
-61.571289
 30
0.0
 11
-130.281815
 21
-78.821533
 31
0.0
  0
LINE
  5
1CB
100
AcDbEntity
  8
LY_3
390
0
  6
CONTINUOUS
 62
     3
100
AcDbLine
 10
-130.281754
 20
-78.821533
 30
0.0
 11
-132.281754
 21
-78.821533
 31
0.0
  0
LINE
  5
1CC
100
AcDbEntity
  8
LY_3
390
0
  6
CONTINUOUS
 62
     3
100
AcDbLine
 10
-132.281815
 20
-91.321533
 30
0.0
 11
-132.281815
 21
-108.571762
 31
0.0
  0
LINE
  5
1CD
100
AcDbEntity
  8
LY_3
390
0
  6
CONTINUOUS
 62
     3
100
AcDbLine
 10
-130.281815
 20
-91.321533
 30
0.0
 11
-130.281815
 21
-108.571762
 31
0.0
  0
LINE
  5
1CE
100
AcDbEntity
  8
LY_3
390
0
  6
CONTINUOUS
 62
     3
100
AcDbLine
 10
-132.281754
 20
-91.321533
 30
0.0
 11
-130.281754
 21
-91.321533
 31
0.0
  0
LINE
  5
1CF
100
AcDbEntity
  8
LY_3
390
0
  6
CONTINUOUS
 62
     3
100
AcDbLine
 10
-128.281815
 20
-61.571289
 30
0.0
 11
-128.281815
 21
-78.821533
 31
0.0
  0
LINE
  5
1D0
100
AcDbEntity
  8
LY_3
390
0
  6
CONTINUOUS
 62
     3
100
AcDbLine
 10
-126.281815
 20
-61.571289
 30
0.0
 11
-126.281815
 21
-78.821533
 31
0.0
  0
LINE
  5
1D1
100
AcDbEntity
  8
LY_3
390
0
  6
CONTINUOUS
 62
     3
100
AcDbLine
 10
-126.281754
 20
-78.821533
 30
0.0
 11
-128.281754
 21
-78.821533
 31
0.0
  0
LINE
  5
1D2
100
AcDbEntity
  8
LY_3
390
0
  6
CONTINUOUS
 62
     3
100
AcDbLine
 10
-128.281815
 20
-91.321533
 30
0.0
 11
-128.281815
 21
-108.571762
 31
0.0
  0
LINE
  5
1D3
100
AcDbEntity
  8
LY_3
390
0
  6
CONTINUOUS
 62
     3
100
AcDbLine
 10
-126.281815
 20
-91.321533
 30
0.0
 11
-126.281815
 21
-108.571762
 31
0.0
  0
LINE
  5
1D4
100
AcDbEntity
  8
LY_3
390
0
  6
CONTINUOUS
 62
     3
100
AcDbLine
 10
-128.281754
 20
-91.321533
 30
0.0
 11
-126.281754
 21
-91.321533
 31
0.0
  0
LINE
  5
1D5
100
AcDbEntity
  8
LY_3
390
0
  6
CONTINUOUS
 62
     3
100
AcDbLine
 10
-140.282379
 20
-80.571533
 30
0.0
 11
-140.282379
 21
-89.571533
 31
0.0
  0
LINE
  5
1D6
100
AcDbEntity
  8
LY_3
390
0
  6
CONTINUOUS
 62
     3
100
AcDbLine
 10
-138.281754
 20
-80.571548
 30
0.0
 11
-138.281754
 21
-89.571579
 31
0.0
  0
LINE
  5
1D7
100
AcDbEntity
  8
LY_3
390
0
  6
CONTINUOUS
 62
     3
100
AcDbLine
 10
-136.281754
 20
-80.571548
 30
0.0
 11
-136.281754
 21
-89.571594
 31
0.0
  0
LINE
  5
1D8
100
AcDbEntity
  8
LY_3
390
0
  6
CONTINUOUS
 62
     3
100
AcDbLine
 10
-134.281754
 20
-80.571548
 30
0.0
 11
-134.281754
 21
-89.571579
 31
0.0
  0
LINE
  5
1D9
100
AcDbEntity
  8
LY_3
390
0
  6
CONTINUOUS
 62
     3
100
AcDbLine
 10
-132.281754
 20
-80.571548
 30
0.0
 11
-132.281754
 21
-89.571579
 31
0.0
  0
LINE
  5
1DA
100
AcDbEntity
  8
LY_3
390
0
  6
CONTINUOUS
 62
     3
100
AcDbLine
 10
-130.281754
 20
-80.571548
 30
0.0
 11
-130.281754
 21
-89.571579
 31
0.0
  0
LINE
  5
1DB
100
AcDbEntity
  8
LY_3
390
0
  6
CONTINUOUS
 62
     3
100
AcDbLine
 10
-128.281754
 20
-80.571548
 30
0.0
 11
-128.281754
 21
-89.571579
 31
0.0
  0
LINE
  5
1DC
100
AcDbEntity
  8
LY_3
390
0
  6
CONTINUOUS
 62
     3
100
AcDbLine
 10
-126.281754
 20
-80.571548
 30
0.0
 11
-126.281754
 21
-89.571579
 31
0.0
  0
LINE
  5
1DD
100
AcDbEntity
  8
LY_3
390
0
  6
CONTINUOUS
 62
     3
100
AcDbLine
 10
-149.177795
 20
-82.321793
 30
0.0
 11
-147.17926
 21
-82.321793
 31
0.0
  0
LINE
  5
1DE
100
AcDbEntity
  8
LY_3
390
0
  6
CONTINUOUS
 62
     3
100
AcDbLine
 10
-149.176844
 20
-87.824251
 30
0.0
 11
-147.178309
 21
-87.824254
 31
0.0
  0
LINE
  5
1DF
100
AcDbEntity
  8
LY_3
390
0
  6
CONTINUOUS
 62
     3
100
AcDbLine
 10
-147.17926
 20
-80.571793
 30
0.0
 11
-147.17926
 21
-89.571808
 31
0.0
  0
LINE
  5
1E0
100
AcDbEntity
  8
LY_3
390
0
  6
CONTINUOUS
 62
     3
100
AcDbLine
 10
-149.177795
 20
-87.821304
 30
0.0
 11
-149.177795
 21
-82.321793
 31
0.0
  0
LINE
  5
1E1
100
AcDbEntity
  8
LY_3
390
0
  6
CONTINUOUS
 62
     3
100
AcDbLine
 10
-146.281815
 20
-61.571289
 30
0.0
 11
-146.281815
 21
-78.821533
 31
0.0
  0
LINE
  5
1E2
100
AcDbEntity
  8
LY_3
390
0
  6
CONTINUOUS
 62
     3
100
AcDbLine
 10
-146.281754
 20
-78.821533
 30
0.0
 11
-148.281754
 21
-78.821533
 31
0.0
  0
LINE
  5
1E3
100
AcDbEntity
  8
LY_3
390
0
  6
CONTINUOUS
 62
     3
100
AcDbLine
 10
-148.281815
 20
-61.571289
 30
0.0
 11
-148.281815
 21
-78.821533
 31
0.0
  0
LINE
  5
1E4
100
AcDbEntity
  8
LY_3
390
0
  6
CONTINUOUS
 62
     3
100
AcDbLine
 10
-136.280762
 20
-101.971176
 30
0.0
 11
-134.280762
 21
-101.971176
 31
0.0
  0
LINE
  5
1E5
100
AcDbEntity
  8
LY_3
390
0
  6
CONTINUOUS
 62
     3
100
AcDbLine
 10
-136.280762
 20
-102.971176
 30
0.0
 11
-134.280762
 21
-102.971176
 31
0.0
  0
LINE
  5
1E6
100
AcDbEntity
  8
LY_3
390
0
  6
CONTINUOUS
 62
     3
100
AcDbLine
 10
-96.281235
 20
-108.571518
 30
0.0
 11
-94.281235
 21
-108.571518
 31
0.0
  0
LINE
  5
1E7
100
AcDbEntity
  8
LY_3
390
0
  6
CONTINUOUS
 62
     3
100
AcDbLine
 10
-94.281494
 20
-105.778458
 30
0.0
 11
-96.281494
 21
-105.778458
 31
0.0
  0
LINE
  5
1E8
100
AcDbEntity
  8
LY_3
390
0
  6
CONTINUOUS
 62
     3
100
AcDbLine
 10
-94.281494
 20
-104.778458
 30
0.0
 11
-96.281494
 21
-104.778458
 31
0.0
  0
LINE
  5
1E9
100
AcDbEntity
  8
LY_3
390
0
  6
CONTINUOUS
 62
     3
100
AcDbLine
 10
-94.281219
 20
-61.571533
 30
0.0
 11
-96.281219
 21
-61.571533
 31
0.0
  0
LINE
  5
1EA
100
AcDbEntity
  8
LY_3
390
0
  6
CONTINUOUS
 62
     3
100
AcDbLine
 10
-96.281494
 20
-64.364502
 30
0.0
 11
-94.281494
 21
-64.364502
 31
0.0
  0
LINE
  5
1EB
100
AcDbEntity
  8
LY_3
390
0
  6
CONTINUOUS
 62
     3
100
AcDbLine
 10
-96.281494
 20
-65.364502
 30
0.0
 11
-94.281494
 21
-65.364502
 31
0.0
  0
LINE
  5
1EC
100
AcDbEntity
  8
LY_3
390
0
  6
CONTINUOUS
 62
     3
100
AcDbLine
 10
-94.280746
 20
-68.172073
 30
0.0
 11
-96.280746
 21
-68.172073
 31
0.0
  0
LINE
  5
1ED
100
AcDbEntity
  8
LY_3
390
0
  6
CONTINUOUS
 62
     3
100
AcDbLine
 10
-94.280746
 20
-67.172073
 30
0.0
 11
-96.280746
 21
-67.172073
 31
0.0
  0
LINE
  5
1EE
100
AcDbEntity
  8
LY_3
390
0
  6
CONTINUOUS
 62
     3
100
AcDbLine
 10
-92.281235
 20
-108.571518
 30
0.0
 11
-90.281235
 21
-108.571518
 31
0.0
  0
LINE
  5
1EF
100
AcDbEntity
  8
LY_3
390
0
  6
CONTINUOUS
 62
     3
100
AcDbLine
 10
-90.281494
 20
-105.778458
 30
0.0
 11
-92.281494
 21
-105.778458
 31
0.0
  0
LINE
  5
1F0
100
AcDbEntity
  8
LY_3
390
0
  6
CONTINUOUS
 62
     3
100
AcDbLine
 10
-90.281494
 20
-104.778458
 30
0.0
 11
-92.281494
 21
-104.778458
 31
0.0
  0
LINE
  5
1F1
100
AcDbEntity
  8
LY_3
390
0
  6
CONTINUOUS
 62
     3
100
AcDbLine
 10
-90.281219
 20
-61.571533
 30
0.0
 11
-92.281219
 21
-61.571533
 31
0.0
  0
LINE
  5
1F2
100
AcDbEntity
  8
LY_3
390
0
  6
CONTINUOUS
 62
     3
100
AcDbLine
 10
-92.281494
 20
-64.364502
 30
0.0
 11
-90.281494
 21
-64.364502
 31
0.0
  0
LINE
  5
1F3
100
AcDbEntity
  8
LY_3
390
0
  6
CONTINUOUS
 62
     3
100
AcDbLine
 10
-92.281494
 20
-65.364502
 30
0.0
 11
-90.281494
 21
-65.364502
 31
0.0
  0
LINE
  5
1F4
100
AcDbEntity
  8
LY_3
390
0
  6
CONTINUOUS
 62
     3
100
AcDbLine
 10
-90.280746
 20
-68.172073
 30
0.0
 11
-92.280746
 21
-68.172073
 31
0.0
  0
LINE
  5
1F5
100
AcDbEntity
  8
LY_3
390
0
  6
CONTINUOUS
 62
     3
100
AcDbLine
 10
-90.280746
 20
-67.172073
 30
0.0
 11
-92.280746
 21
-67.172073
 31
0.0
  0
LINE
  5
1F6
100
AcDbEntity
  8
LY_3
390
0
  6
CONTINUOUS
 62
     3
100
AcDbLine
 10
-88.281235
 20
-108.571518
 30
0.0
 11
-86.281235
 21
-108.571518
 31
0.0
  0
LINE
  5
1F7
100
AcDbEntity
  8
LY_3
390
0
  6
CONTINUOUS
 62
     3
100
AcDbLine
 10
-86.281494
 20
-105.778458
 30
0.0
 11
-88.281494
 21
-105.778458
 31
0.0
  0
LINE
  5
1F8
100
AcDbEntity
  8
LY_3
390
0
  6
CONTINUOUS
 62
     3
100
AcDbLine
 10
-86.281494
 20
-104.778458
 30
0.0
 11
-88.281494
 21
-104.778458
 31
0.0
  0
LINE
  5
1F9
100
AcDbEntity
  8
LY_3
390
0
  6
CONTINUOUS
 62
     3
100
AcDbLine
 10
-86.281219
 20
-61.571533
 30
0.0
 11
-88.281219
 21
-61.571533
 31
0.0
  0
LINE
  5
1FA
100
AcDbEntity
  8
LY_3
390
0
  6
CONTINUOUS
 62
     3
100
AcDbLine
 10
-88.281494
 20
-64.364502
 30
0.0
 11
-86.281494
 21
-64.364502
 31
0.0
  0
LINE
  5
1FB
100
AcDbEntity
  8
LY_3
390
0
  6
CONTINUOUS
 62
     3
100
AcDbLine
 10
-88.281494
 20
-65.364502
 30
0.0
 11
-86.281494
 21
-65.364502
 31
0.0
  0
LINE
  5
1FC
100
AcDbEntity
  8
LY_3
390
0
  6
CONTINUOUS
 62
     3
100
AcDbLine
 10
-86.280746
 20
-68.172073
 30
0.0
 11
-88.280746
 21
-68.172073
 31
0.0
  0
LINE
  5
1FD
100
AcDbEntity
  8
LY_3
390
0
  6
CONTINUOUS
 62
     3
100
AcDbLine
 10
-86.280746
 20
-67.172073
 30
0.0
 11
-88.280746
 21
-67.172073
 31
0.0
  0
LINE
  5
1FE
100
AcDbEntity
  8
LY_3
390
0
  6
CONTINUOUS
 62
     3
100
AcDbLine
 10
-84.28183
 20
-61.571533
 30
0.0
 11
-84.28183
 21
-108.571518
 31
0.0
  0
LINE
  5
1FF
100
AcDbEntity
  8
LY_3
390
0
  6
CONTINUOUS
 62
     3
100
AcDbLine
 10
-82.28183
 20
-61.571533
 30
0.0
 11
-82.28183
 21
-108.571518
 31
0.0
  0
LINE
  5
200
100
AcDbEntity
  8
LY_3
390
0
  6
CONTINUOUS
 62
     3
100
AcDbLine
 10
-88.281815
 20
-61.571533
 30
0.0
 11
-88.281815
 21
-108.571518
 31
0.0
  0
LINE
  5
201
100
AcDbEntity
  8
LY_3
390
0
  6
CONTINUOUS
 62
     3
100
AcDbLine
 10
-86.281815
 20
-61.571533
 30
0.0
 11
-86.281815
 21
-108.571518
 31
0.0
  0
LINE
  5
202
100
AcDbEntity
  8
LY_3
390
0
  6
CONTINUOUS
 62
     3
100
AcDbLine
 10
-92.281815
 20
-61.571533
 30
0.0
 11
-92.281815
 21
-108.571518
 31
0.0
  0
LINE
  5
203
100
AcDbEntity
  8
LY_3
390
0
  6
CONTINUOUS
 62
     3
100
AcDbLine
 10
-90.281815
 20
-61.571533
 30
0.0
 11
-90.281815
 21
-108.571518
 31
0.0
  0
LINE
  5
204
100
AcDbEntity
  8
LY_3
390
0
  6
CONTINUOUS
 62
     3
100
AcDbLine
 10
-156.67926
 20
-58.571793
 30
0.0
 11
-70.279541
 21
-58.571793
 31
0.0
  0
LINE
  5
205
100
AcDbEntity
  8
LY_3
390
0
  6
CONTINUOUS
 62
     3
100
AcDbLine
 10
-144.281754
 20
-80.571548
 30
0.0
 11
-144.281754
 21
-89.571579
 31
0.0
  0
LINE
  5
206
100
AcDbEntity
  8
LY_3
390
0
  6
CONTINUOUS
 62
     3
100
AcDbLine
 10
-156.67926
 20
-58.571823
 30
0.0
 11
-156.67926
 21
-62.071823
 31
0.0
  0
LINE
  5
207
100
AcDbEntity
  8
LY_3
390
0
  6
CONTINUOUS
 62
     3
100
AcDbLine
 10
-154.67926
 20
-58.571823
 30
0.0
 11
-154.67926
 21
-111.571762
 31
0.0
  0
LINE
  5
208
100
AcDbEntity
  8
LY_3
390
0
  6
CONTINUOUS
 62
     3
100
AcDbLine
 10
-155.279251
 20
-58.571823
 30
0.0
 11
-155.279251
 21
-62.071823
 31
0.0
  0
LINE
  5
209
100
AcDbEntity
  8
LY_3
390
0
  6
CONTINUOUS
 62
     3
100
AcDbLine
 10
-75.279572
 20
-81.071548
 30
0.0
 11
-70.279572
 21
-81.071548
 31
0.0
  0
LINE
  5
20A
100
AcDbEntity
  8
LY_3
390
0
  6
CONTINUOUS
 62
     3
100
AcDbLine
 10
-75.279587
 20
-89.071533
 30
0.0
 11
-70.279572
 21
-89.071533
 31
0.0
  0
LINE
  5
20B
100
AcDbEntity
  8
LY_3
390
0
  6
CONTINUOUS
 62
     3
100
AcDbLine
 10
-132.280762
 20
-101.971176
 30
0.0
 11
-130.280762
 21
-101.971176
 31
0.0
  0
LINE
  5
20C
100
AcDbEntity
  8
LY_3
390
0
  6
CONTINUOUS
 62
     3
100
AcDbLine
 10
-132.280762
 20
-102.971176
 30
0.0
 11
-130.280762
 21
-102.971176
 31
0.0
  0
LINE
  5
20D
100
AcDbEntity
  8
LY_3
390
0
  6
CONTINUOUS
 62
     3
100
AcDbLine
 10
-128.280762
 20
-101.971176
 30
0.0
 11
-126.280762
 21
-101.971176
 31
0.0
  0
LINE
  5
20E
100
AcDbEntity
  8
LY_3
390
0
  6
CONTINUOUS
 62
     3
100
AcDbLine
 10
-128.280762
 20
-102.971176
 30
0.0
 11
-126.280762
 21
-102.971176
 31
0.0
  0
LINE
  5
20F
100
AcDbEntity
  8
LY_3
390
0
  6
CONTINUOUS
 62
     3
100
AcDbLine
 10
170.069824
 20
-36.920166
 30
0.0
 11
111.354736
 21
-36.920166
 31
0.0
  0
LINE
  5
210
100
AcDbEntity
  8
LY_3
390
0
  6
CONTINUOUS
 62
     3
100
AcDbLine
 10
111.370361
 20
106.777954
 30
0.0
 11
170.069824
 21
106.777954
 31
0.0
  0
LINE
  5
211
100
AcDbEntity
  8
LY_3
390
0
  6
CONTINUOUS
 62
     3
100
AcDbLine
 10
108.870361
 20
69.928467
 30
0.0
 11
107.370361
 21
69.928467
 31
0.0
  0
LINE
  5
212
100
AcDbEntity
  8
LY_3
390
0
  6
CONTINUOUS
 62
     3
100
AcDbLine
 10
108.870361
 20
68.928467
 30
0.0
 11
107.370361
 21
68.928467
 31
0.0
  0
LINE
  5
213
100
AcDbEntity
  8
LY_3
390
0
  6
CONTINUOUS
 62
     3
100
AcDbLine
 10
107.370361
 20
79.928467
 30
0.0
 11
108.870361
 21
79.928467
 31
0.0
  0
LINE
  5
214
100
AcDbEntity
  8
LY_3
390
0
  6
CONTINUOUS
 62
     3
100
AcDbLine
 10
107.370361
 20
80.928467
 30
0.0
 11
108.870361
 21
80.928467
 31
0.0
  0
LINE
  5
215
100
AcDbEntity
  8
LY_3
390
0
  6
CONTINUOUS
 62
     3
100
AcDbLine
 10
107.370361
 20
-32.920166
 30
0.0
 11
107.370361
 21
102.777954
 31
0.0
  0
LINE
  5
216
100
AcDbEntity
  8
LY_3
390
0
  6
CONTINUOUS
 62
     3
100
AcDbLine
 10
139.720459
 20
60.928467
 30
0.0
 11
139.720459
 21
88.928467
 31
0.0
  0
LINE
  5
217
100
AcDbEntity
  8
LY_3
390
0
  6
CONTINUOUS
 62
     3
100
AcDbLine
 10
141.720459
 20
60.928467
 30
0.0
 11
141.720459
 21
88.928467
 31
0.0
  0
LINE
  5
218
100
AcDbEntity
  8
LY_3
390
0
  6
CONTINUOUS
 62
     3
100
AcDbLine
 10
119.720459
 20
60.928467
 30
0.0
 11
119.720459
 21
88.928467
 31
0.0
  0
LINE
  5
219
100
AcDbEntity
  8
LY_3
390
0
  6
CONTINUOUS
 62
     3
100
AcDbLine
 10
121.720459
 20
60.928467
 30
0.0
 11
121.720459
 21
88.928467
 31
0.0
  0
LINE
  5
21A
100
AcDbEntity
  8
LY_3
390
0
  6
CONTINUOUS
 62
     3
100
AcDbLine
 10
174.070557
 20
68.928467
 30
0.0
 11
172.570557
 21
68.928467
 31
0.0
  0
LINE
  5
21B
100
AcDbEntity
  8
LY_3
390
0
  6
CONTINUOUS
 62
     3
100
AcDbLine
 10
172.570557
 20
80.928467
 30
0.0
 11
174.070557
 21
80.928467
 31
0.0
  0
LINE
  5
21C
100
AcDbEntity
  8
LY_3
390
0
  6
CONTINUOUS
 62
     3
100
AcDbLine
 10
174.070313
 20
102.777832
 30
0.0
 11
174.070313
 21
-32.920166
 31
0.0
  0
LINE
  5
21D
100
AcDbEntity
  8
LY_3
390
0
  6
CONTINUOUS
 62
     3
100
AcDbLine
 10
161.720459
 20
88.928467
 30
0.0
 11
161.720459
 21
60.928467
 31
0.0
  0
LINE
  5
21E
100
AcDbEntity
  8
LY_3
390
0
  6
CONTINUOUS
 62
     3
100
AcDbLine
 10
159.720459
 20
88.928467
 30
0.0
 11
159.720459
 21
60.928467
 31
0.0
  0
LINE
  5
21F
100
AcDbEntity
  8
LY_3
390
0
  6
CONTINUOUS
 62
     3
100
AcDbLine
 10
107.370361
 20
-0.071533
 30
0.0
 11
108.870361
 21
-0.071533
 31
0.0
  0
LINE
  5
220
100
AcDbEntity
  8
LY_3
390
0
  6
CONTINUOUS
 62
     3
100
AcDbLine
 10
107.370361
 20
0.928467
 30
0.0
 11
108.870361
 21
0.928467
 31
0.0
  0
LINE
  5
221
100
AcDbEntity
  8
LY_3
390
0
  6
CONTINUOUS
 62
     3
100
AcDbLine
 10
108.870361
 20
-10.071533
 30
0.0
 11
107.370361
 21
-10.071533
 31
0.0
  0
LINE
  5
222
100
AcDbEntity
  8
LY_3
390
0
  6
CONTINUOUS
 62
     3
100
AcDbLine
 10
108.870361
 20
-11.071533
 30
0.0
 11
107.370361
 21
-11.071533
 31
0.0
  0
LINE
  5
223
100
AcDbEntity
  8
LY_3
390
0
  6
CONTINUOUS
 62
     3
100
AcDbLine
 10
139.720459
 20
-19.071533
 30
0.0
 11
139.720459
 21
8.928467
 31
0.0
  0
LINE
  5
224
100
AcDbEntity
  8
LY_3
390
0
  6
CONTINUOUS
 62
     3
100
AcDbLine
 10
141.720459
 20
-19.071533
 30
0.0
 11
141.720459
 21
8.928467
 31
0.0
  0
LINE
  5
225
100
AcDbEntity
  8
LY_3
390
0
  6
CONTINUOUS
 62
     3
100
AcDbLine
 10
119.720459
 20
-19.071533
 30
0.0
 11
119.720459
 21
8.928467
 31
0.0
  0
LINE
  5
226
100
AcDbEntity
  8
LY_3
390
0
  6
CONTINUOUS
 62
     3
100
AcDbLine
 10
121.720459
 20
-19.071533
 30
0.0
 11
121.720459
 21
8.928467
 31
0.0
  0
LINE
  5
227
100
AcDbEntity
  8
LY_3
390
0
  6
CONTINUOUS
 62
     3
100
AcDbLine
 10
172.570557
 20
0.928467
 30
0.0
 11
174.070557
 21
0.928467
 31
0.0
  0
LINE
  5
228
100
AcDbEntity
  8
LY_3
390
0
  6
CONTINUOUS
 62
     3
100
AcDbLine
 10
174.070557
 20
-11.071533
 30
0.0
 11
172.570557
 21
-11.071533
 31
0.0
  0
LINE
  5
229
100
AcDbEntity
  8
LY_3
390
0
  6
CONTINUOUS
 62
     3
100
AcDbLine
 10
161.720459
 20
8.928467
 30
0.0
 11
161.720459
 21
-19.071533
 31
0.0
  0
LINE
  5
22A
100
AcDbEntity
  8
LY_3
390
0
  6
CONTINUOUS
 62
     3
100
AcDbLine
 10
159.720459
 20
8.928467
 30
0.0
 11
159.720459
 21
-19.071533
 31
0.0
  0
LINE
  5
22B
100
AcDbEntity
  8
LY_3
390
0
  6
CONTINUOUS
 62
     3
100
AcDbLine
 10
35.469238
 20
42.928207
 30
0.0
 11
35.469238
 21
26.928223
 31
0.0
  0
LINE
  5
22C
100
AcDbEntity
  8
LY_3
390
0
  6
CONTINUOUS
 62
     3
100
AcDbLine
 10
20.668094
 20
74.31681
 30
0.0
 11
20.66808
 21
78.516761
 31
0.0
  0
LINE
  5
22D
100
AcDbEntity
  8
LY_3
390
0
  6
CONTINUOUS
 62
     3
100
AcDbLine
 10
-16.530762
 20
4.929031
 30
0.0
 11
-16.530762
 21
-40.071777
 31
0.0
  0
LINE
  5
22E
100
AcDbEntity
  8
LY_3
390
0
  6
CONTINUOUS
 62
     3
100
AcDbLine
 10
-15.529297
 20
-33.070862
 30
0.0
 11
-15.529297
 21
-40.071777
 31
0.0
  0
LINE
  5
22F
100
AcDbEntity
  8
LY_3
390
0
  6
CONTINUOUS
 62
     3
100
AcDbLine
 10
36.469238
 20
109.928223
 30
0.0
 11
36.469238
 21
34.928223
 31
0.0
  0
LINE
  5
230
100
AcDbEntity
  8
LY_3
390
0
  6
CONTINUOUS
 62
     3
100
AcDbLine
 10
-16.530762
 20
-40.071777
 30
0.0
 11
36.469238
 21
-40.071777
 31
0.0
  0
LINE
  5
231
100
AcDbEntity
  8
LY_3
390
0
  6
CONTINUOUS
 62
     3
100
AcDbLine
 10
-16.530762
 20
109.928223
 30
0.0
 11
36.469238
 21
109.928223
 31
0.0
  0
LINE
  5
232
100
AcDbEntity
  8
LY_3
390
0
  6
CONTINUOUS
 62
     3
100
AcDbLine
 10
-8.030762
 20
-38.071777
 30
0.0
 11
-8.030762
 21
-40.071762
 31
0.0
  0
LINE
  5
233
100
AcDbEntity
  8
LY_3
390
0
  6
CONTINUOUS
 62
     3
100
AcDbLine
 10
-8.030762
 20
109.928192
 30
0.0
 11
-8.030762
 21
107.928223
 31
0.0
  0
LINE
  5
234
100
AcDbEntity
  8
LY_3
390
0
  6
CONTINUOUS
 62
     3
100
AcDbLine
 10
33.969238
 20
42.928009
 30
0.0
 11
33.969238
 21
26.928024
 31
0.0
  0
LINE
  5
235
100
AcDbEntity
  8
LY_3
390
0
  6
CONTINUOUS
 62
     3
100
AcDbLine
 10
36.469238
 20
34.928223
 30
0.0
 11
36.469238
 21
-40.071777
 31
0.0
  0
LINE
  5
236
100
AcDbEntity
  8
LY_3
390
0
  6
CONTINUOUS
 62
     3
100
AcDbLine
 10
33.969238
 20
26.928223
 30
0.0
 11
36.469238
 21
26.928223
 31
0.0
  0
LINE
  5
237
100
AcDbEntity
  8
LY_3
390
0
  6
CONTINUOUS
 62
     3
100
AcDbLine
 10
33.969238
 20
42.928207
 30
0.0
 11
36.469238
 21
42.928207
 31
0.0
  0
LINE
  5
238
100
AcDbEntity
  8
LY_3
390
0
  6
CONTINUOUS
 62
     3
100
AcDbLine
 10
26.867789
 20
74.316972
 30
0.0
 11
26.867775
 21
78.525301
 31
0.0
  0
LINE
  5
239
100
AcDbEntity
  8
LY_3
390
0
  6
CONTINUOUS
 62
     3
100
AcDbLine
 10
22.068179
 20
74.316951
 30
0.0
 11
22.068165
 21
78.516895
 31
0.0
  0
LINE
  5
23A
100
AcDbEntity
  8
LY_3
390
0
  6
CONTINUOUS
 62
     3
100
AcDbLine
 10
21.318179
 20
74.316949
 30
0.0
 11
21.318165
 21
78.516893
 31
0.0
  0
LINE
  5
23B
100
AcDbEntity
  8
LY_3
390
0
  6
CONTINUOUS
 62
     3
100
AcDbLine
 10
26.86804
 20
91.316469
 30
0.0
 11
26.868026
 21
95.51642
 31
0.0
  0
LINE
  5
23C
100
AcDbEntity
  8
LY_3
390
0
  6
CONTINUOUS
 62
     3
100
AcDbLine
 10
22.068429
 20
91.31644
 30
0.0
 11
22.068415
 21
95.516391
 31
0.0
  0
LINE
  5
23D
100
AcDbEntity
  8
LY_3
390
0
  6
CONTINUOUS
 62
     3
100
AcDbLine
 10
-16.530762
 20
-38.071777
 30
0.0
 11
-8.030762
 21
-38.071777
 31
0.0
  0
LINE
  5
23E
100
AcDbEntity
  8
LY_3
390
0
  6
CONTINUOUS
 62
     3
100
AcDbLine
 10
-8.030762
 20
107.928223
 30
0.0
 11
-16.530762
 21
107.928223
 31
0.0
  0
LINE
  5
23F
100
AcDbEntity
  8
LY_3
390
0
  6
CONTINUOUS
 62
     3
100
AcDbLine
 10
9.969055
 20
34.428833
 30
0.0
 11
9.969055
 21
18.428833
 31
0.0
  0
LINE
  5
240
100
AcDbEntity
  8
LY_3
390
0
  6
CONTINUOUS
 62
     3
100
AcDbLine
 10
8.969055
 20
34.428833
 30
0.0
 11
8.969055
 21
18.428833
 31
0.0
  0
LINE
  5
241
100
AcDbEntity
  8
LY_3
390
0
  6
CONTINUOUS
 62
     3
100
AcDbLine
 10
8.469055
 20
18.428818
 30
0.0
 11
9.969055
 21
18.428818
 31
0.0
  0
LINE
  5
242
100
AcDbEntity
  8
LY_3
390
0
  6
CONTINUOUS
 62
     3
100
AcDbLine
 10
8.469055
 20
34.428818
 30
0.0
 11
9.969055
 21
34.428818
 31
0.0
  0
LINE
  5
243
100
AcDbEntity
  8
LY_3
390
0
  6
CONTINUOUS
 62
     3
100
AcDbLine
 10
-16.530945
 20
-33.071213
 30
0.0
 11
8.469055
 21
-33.071213
 31
0.0
  0
LINE
  5
244
100
AcDbEntity
  8
LY_3
390
0
  6
CONTINUOUS
 62
     3
100
AcDbLine
 10
8.469055
 20
45.428772
 30
0.0
 11
8.469055
 21
26.428894
 31
0.0
  0
LINE
  5
245
100
AcDbEntity
  8
LY_3
390
0
  6
CONTINUOUS
 62
     3
100
AcDbLine
 10
8.469055
 20
4.929031
 30
0.0
 11
8.469055
 21
-14.071091
 31
0.0
  0
LINE
  5
246
100
AcDbEntity
  8
LY_3
390
0
  6
CONTINUOUS
 62
     3
100
AcDbLine
 10
9.969055
 20
-6.071075
 30
0.0
 11
9.969055
 21
-22.071075
 31
0.0
  0
LINE
  5
247
100
AcDbEntity
  8
LY_3
390
0
  6
CONTINUOUS
 62
     3
100
AcDbLine
 10
8.969055
 20
-6.071075
 30
0.0
 11
8.969055
 21
-22.071075
 31
0.0
  0
LINE
  5
248
100
AcDbEntity
  8
LY_3
390
0
  6
CONTINUOUS
 62
     3
100
AcDbLine
 10
8.469055
 20
-22.071091
 30
0.0
 11
9.969055
 21
-22.071091
 31
0.0
  0
LINE
  5
249
100
AcDbEntity
  8
LY_3
390
0
  6
CONTINUOUS
 62
     3
100
AcDbLine
 10
8.469055
 20
-6.071106
 30
0.0
 11
9.969055
 21
-6.071106
 31
0.0
  0
LINE
  5
24A
100
AcDbEntity
  8
LY_3
390
0
  6
CONTINUOUS
 62
     3
100
AcDbLine
 10
8.469055
 20
-14.071091
 30
0.0
 11
8.469055
 21
-33.071213
 31
0.0
  0
LINE
  5
24B
100
AcDbEntity
  8
LY_3
390
0
  6
CONTINUOUS
 62
     3
100
AcDbLine
 10
8.469055
 20
26.428894
 30
0.0
 11
8.469055
 21
7.429031
 31
0.0
  0
LINE
  5
24C
100
AcDbEntity
  8
LY_3
390
0
  6
CONTINUOUS
 62
     3
100
AcDbLine
 10
27.618955
 20
91.316258
 30
0.0
 11
27.618942
 21
95.516209
 31
0.0
  0
LINE
  5
24D
100
AcDbEntity
  8
LY_3
390
0
  6
CONTINUOUS
 62
     3
100
AcDbLine
 10
21.319405
 20
91.31624
 30
0.0
 11
21.319391
 21
95.516191
 31
0.0
  0
LINE
  5
24E
100
AcDbEntity
  8
LY_3
390
0
  6
CONTINUOUS
 62
     3
100
AcDbLine
 10
27.618704
 20
74.317097
 30
0.0
 11
27.618691
 21
78.517048
 31
0.0
  0
LINE
  5
24F
100
AcDbEntity
  8
LY_3
390
0
  6
CONTINUOUS
 62
     3
100
AcDbLine
 10
35.469177
 20
108.428223
 30
0.0
 11
35.469177
 21
67.927551
 31
0.0
  0
LINE
  5
250
100
AcDbEntity
  8
LY_3
390
0
  6
CONTINUOUS
 62
     3
100
AcDbLine
 10
-14.530701
 20
106.927551
 30
0.0
 11
-14.530701
 21
67.927551
 31
0.0
  0
LINE
  5
251
100
AcDbEntity
  8
LY_3
390
0
  6
CONTINUOUS
 62
     3
100
AcDbLine
 10
-14.530701
 20
67.927551
 30
0.0
 11
35.469177
 21
67.927551
 31
0.0
  0
LINE
  5
252
100
AcDbEntity
  8
LY_3
390
0
  6
CONTINUOUS
 62
     3
100
AcDbLine
 10
28.11804
 20
91.316473
 30
0.0
 11
28.118026
 21
95.516424
 31
0.0
  0
LINE
  5
253
100
AcDbEntity
  8
LY_3
390
0
  6
CONTINUOUS
 62
     3
100
AcDbLine
 10
20.818429
 20
91.316436
 30
0.0
 11
20.818415
 21
95.516387
 31
0.0
  0
LINE
  5
254
100
AcDbEntity
  8
LY_3
390
0
  6
CONTINUOUS
 62
     3
100
AcDbLine
 10
28.118704
 20
74.317098
 30
0.0
 11
28.118691
 21
78.51705
 31
0.0
  0
LINE
  5
255
100
AcDbEntity
  8
LY_3
390
0
  6
CONTINUOUS
 62
     3
100
AcDbLine
 10
20.818179
 20
74.316947
 30
0.0
 11
20.818165
 21
78.516891
 31
0.0
  0
LINE
  5
256
100
AcDbEntity
  8
LY_3
390
0
  6
CONTINUOUS
 62
     3
100
AcDbLine
 10
-16.530762
 20
109.928223
 30
0.0
 11
-16.530762
 21
7.429031
 31
0.0
  0
LINE
  5
257
100
AcDbEntity
  8
LY_3
390
0
  6
CONTINUOUS
 62
     3
100
AcDbLine
 10
-15.529236
 20
109.928223
 30
0.0
 11
-15.529236
 21
45.428772
 31
0.0
  0
LINE
  5
258
100
AcDbEntity
  8
LY_3
390
0
  6
CONTINUOUS
 62
     3
100
AcDbLine
 10
-16.530945
 20
45.428772
 30
0.0
 11
8.469055
 21
45.428772
 31
0.0
  0
LINE
  5
259
100
AcDbEntity
  8
LY_3
390
0
  6
CONTINUOUS
 62
     3
100
AcDbLine
 10
-15.52948
 20
45.428772
 30
0.0
 11
-15.52948
 21
-33.071213
 31
0.0
  0
LINE
  5
25A
100
AcDbEntity
  8
LY_3
390
0
  6
CONTINUOUS
 62
     3
100
AcDbLine
 10
-16.530945
 20
7.429443
 30
0.0
 11
-16.530945
 21
4.928833
 31
0.0
  0
LINE
  5
25B
100
AcDbEntity
  8
LY_3
390
0
  6
CONTINUOUS
 62
     3
100
AcDbLine
 10
-16.530945
 20
4.929031
 30
0.0
 11
8.469055
 21
4.929031
 31
0.0
  0
LINE
  5
25C
100
AcDbEntity
  8
LY_3
390
0
  6
CONTINUOUS
 62
     3
100
AcDbLine
 10
-16.530945
 20
7.429031
 30
0.0
 11
8.469055
 21
7.429031
 31
0.0
  0
LINE
  5
25D
100
AcDbEntity
  8
LY_3
390
0
  6
CONTINUOUS
 62
     3
100
AcDbLine
 10
-14.530701
 20
106.927551
 30
0.0
 11
-7.030823
 21
106.927551
 31
0.0
  0
LINE
  5
25E
100
AcDbEntity
  8
LY_3
390
0
  6
CONTINUOUS
 62
     3
100
AcDbLine
 10
-7.030823
 20
108.428223
 30
0.0
 11
-7.030823
 21
106.927551
 31
0.0
  0
LINE
  5
25F
100
AcDbEntity
  8
LY_3
390
0
  6
CONTINUOUS
 62
     3
100
AcDbLine
 10
-7.030823
 20
108.428223
 30
0.0
 11
35.469177
 21
108.428223
 31
0.0
  0
LINE
  5
260
100
AcDbEntity
  8
LY_3
390
0
  6
CONTINUOUS
 62
     3
100
AcDbLine
 10
34.469238
 20
42.928207
 30
0.0
 11
34.469238
 21
26.928223
 31
0.0
  0
LINE
  5
261
100
AcDbEntity
  8
LY_3
390
0
  6
CONTINUOUS
 62
     3
100
AcDbLine
 10
28.267942
 20
91.316328
 30
0.0
 11
28.267929
 21
95.516279
 31
0.0
  0
LINE
  5
262
100
AcDbEntity
  8
LY_3
390
0
  6
CONTINUOUS
 62
     3
100
AcDbLine
 10
20.668343
 20
91.316291
 30
0.0
 11
20.668329
 21
95.516242
 31
0.0
  0
LINE
  5
263
100
AcDbEntity
  8
LY_3
390
0
  6
CONTINUOUS
 62
     3
100
AcDbLine
 10
-14.380676
 20
106.777527
 30
0.0
 11
-14.380676
 21
68.077545
 31
0.0
  0
LINE
  5
264
100
AcDbEntity
  8
LY_3
390
0
  6
CONTINUOUS
 62
     3
100
AcDbLine
 10
28.268606
 20
74.316946
 30
0.0
 11
28.268593
 21
78.51689
 31
0.0
  0
LINE
  5
265
100
AcDbEntity
  8
LY_3
390
0
  6
CONTINUOUS
 62
     3
100
AcDbLine
 10
-14.380676
 20
68.077545
 30
0.0
 11
35.319214
 21
68.077545
 31
0.0
  0
LINE
  5
266
100
AcDbEntity
  8
LY_3
390
0
  6
CONTINUOUS
 62
     3
100
AcDbLine
 10
-14.380676
 20
106.777527
 30
0.0
 11
-6.880676
 21
106.777527
 31
0.0
  0
LINE
  5
267
100
AcDbEntity
  8
LY_3
390
0
  6
CONTINUOUS
 62
     3
100
AcDbLine
 10
35.319214
 20
108.277527
 30
0.0
 11
35.319214
 21
68.077545
 31
0.0
  0
LINE
  5
268
100
AcDbEntity
  8
LY_3
390
0
  6
CONTINUOUS
 62
     3
100
AcDbLine
 10
-6.880676
 20
108.277527
 30
0.0
 11
35.319214
 21
108.277527
 31
0.0
  0
LINE
  5
269
100
AcDbEntity
  8
LY_3
390
0
  6
CONTINUOUS
 62
     3
100
AcDbLine
 10
-6.880676
 20
108.277527
 30
0.0
 11
-6.880676
 21
106.777527
 31
0.0
  0
LINE
  5
26A
100
AcDbEntity
  8
LY_3
390
0
  6
CONTINUOUS
 62
     3
100
AcDbLine
 10
180.220276
 20
108.727829
 30
0.0
 11
180.220276
 21
100.427872
 31
0.0
  0
LINE
  5
26B
100
AcDbEntity
  8
LY_3
390
0
  6
CONTINUOUS
 62
     3
100
AcDbLine
 10
181.620178
 20
109.928482
 30
0.0
 11
181.620178
 21
108.727829
 31
0.0
  0
LINE
  5
26C
100
AcDbEntity
  8
LY_3
390
0
  6
CONTINUOUS
 62
     3
100
AcDbLine
 10
179.720276
 20
100.427872
 30
0.0
 11
179.720276
 21
34.928482
 31
0.0
  0
LINE
  5
26D
100
AcDbEntity
  8
LY_3
390
0
  6
CONTINUOUS
 62
     3
100
AcDbLine
 10
181.620178
 20
108.727829
 30
0.0
 11
180.220276
 21
108.727829
 31
0.0
  0
LINE
  5
26E
100
AcDbEntity
  8
LY_3
390
0
  6
CONTINUOUS
 62
     3
100
AcDbLine
 10
96.019562
 20
-9.07431
 30
0.0
 11
96.019562
 21
-14.07431
 31
0.0
  0
LINE
  5
26F
100
AcDbEntity
  8
LY_3
390
0
  6
CONTINUOUS
 62
     3
100
AcDbLine
 10
95.220001
 20
-14.074326
 30
0.0
 11
96.019547
 21
-14.074326
 31
0.0
  0
LINE
  5
270
100
AcDbEntity
  8
LY_3
390
0
  6
CONTINUOUS
 62
     3
100
AcDbLine
 10
95.219696
 20
-9.074219
 30
0.0
 11
96.019531
 21
-9.074213
 31
0.0
  0
LINE
  5
271
100
AcDbEntity
  8
LY_3
390
0
  6
CONTINUOUS
 62
     3
100
AcDbLine
 10
99.218811
 20
-17.06778
 30
0.0
 11
99.218811
 21
-6.067719
 31
0.0
  0
LINE
  5
272
100
AcDbEntity
  8
LY_3
390
0
  6
CONTINUOUS
 62
     3
100
AcDbLine
 10
101.21756
 20
-17.067703
 30
0.0
 11
99.218048
 21
-17.067703
 31
0.0
  0
LINE
  5
273
100
AcDbEntity
  8
LY_3
390
0
  6
CONTINUOUS
 62
     3
100
AcDbLine
 10
99.218048
 20
-6.067642
 30
0.0
 11
101.21756
 21
-6.067642
 31
0.0
  0
LINE
  5
274
100
AcDbEntity
  8
LY_3
390
0
  6
CONTINUOUS
 62
     3
100
AcDbLine
 10
101.217804
 20
-17.067688
 30
0.0
 11
101.217804
 21
-6.067627
 31
0.0
  0
LINE
  5
275
100
AcDbEntity
  8
LY_3
390
0
  6
CONTINUOUS
 62
     3
100
AcDbLine
 10
179.720276
 20
34.928467
 30
0.0
 11
179.720276
 21
26.426147
 31
0.0
  0
LINE
  5
276
100
AcDbEntity
  8
LY_3
390
0
  6
CONTINUOUS
 62
     3
100
AcDbLine
 10
95.22049
 20
109.927795
 30
0.0
 11
181.620148
 21
109.927795
 31
0.0
  0
LINE
  5
277
100
AcDbEntity
  8
LY_3
390
0
  6
CONTINUOUS
 62
     3
100
AcDbLine
 10
96.019485
 20
83.931229
 30
0.0
 11
96.019485
 21
78.931229
 31
0.0
  0
LINE
  5
278
100
AcDbEntity
  8
LY_3
390
0
  6
CONTINUOUS
 62
     3
100
AcDbLine
 10
96.01947
 20
83.931259
 30
0.0
 11
95.219925
 21
83.931259
 31
0.0
  0
LINE
  5
279
100
AcDbEntity
  8
LY_3
390
0
  6
CONTINUOUS
 62
     3
100
AcDbLine
 10
96.019496
 20
78.931211
 30
0.0
 11
95.21966
 21
78.931216
 31
0.0
  0
LINE
  5
27A
100
AcDbEntity
  8
LY_3
390
0
  6
CONTINUOUS
 62
     3
100
AcDbLine
 10
99.218811
 20
75.924652
 30
0.0
 11
99.218811
 21
86.924713
 31
0.0
  0
LINE
  5
27B
100
AcDbEntity
  8
LY_3
390
0
  6
CONTINUOUS
 62
     3
100
AcDbLine
 10
99.217987
 20
86.924637
 30
0.0
 11
101.217499
 21
86.924637
 31
0.0
  0
LINE
  5
27C
100
AcDbEntity
  8
LY_3
390
0
  6
CONTINUOUS
 62
     3
100
AcDbLine
 10
101.217514
 20
75.924576
 30
0.0
 11
99.218002
 21
75.924576
 31
0.0
  0
LINE
  5
27D
100
AcDbEntity
  8
LY_3
390
0
  6
CONTINUOUS
 62
     3
100
AcDbLine
 10
101.217758
 20
75.924545
 30
0.0
 11
101.217758
 21
86.924606
 31
0.0
  0
LINE
  5
27E
100
AcDbEntity
  8
LY_3
390
0
  6
CONTINUOUS
 62
     3
100
AcDbLine
 10
179.720245
 20
100.427795
 30
0.0
 11
180.220245
 21
100.427795
 31
0.0
  0
LINE
  5
27F
100
AcDbEntity
  8
LY_3
390
0
  6
CONTINUOUS
 62
     3
100
AcDbLine
 10
179.720276
 20
26.426147
 30
0.0
 11
180.220276
 21
26.426147
 31
0.0
  0
LINE
  5
280
100
AcDbEntity
  8
LY_3
390
0
  6
CONTINUOUS
 62
     3
100
AcDbLine
 10
181.9207
 20
-35.570114
 30
0.0
 11
179.620255
 21
-35.570114
 31
0.0
  0
LINE
  5
281
100
AcDbEntity
  8
LY_3
390
0
  6
CONTINUOUS
 62
     3
100
AcDbLine
 10
182.220505
 20
-28.570114
 30
0.0
 11
180.220505
 21
-28.570114
 31
0.0
  0
LINE
  5
282
100
AcDbEntity
  8
LY_3
390
0
  6
CONTINUOUS
 62
     3
100
AcDbLine
 10
185.220764
 20
-31.570663
 30
0.0
 11
185.220764
 21
-36.770615
 31
0.0
  0
LINE
  5
283
100
AcDbEntity
  8
LY_3
390
0
  6
CONTINUOUS
 62
     3
100
AcDbLine
 10
181.920715
 20
-35.570663
 30
0.0
 11
181.920715
 21
-36.770615
 31
0.0
  0
LINE
  5
284
100
AcDbEntity
  8
LY_3
390
0
  6
CONTINUOUS
 62
     3
100
AcDbLine
 10
184.220505
 20
-37.770065
 30
0.0
 11
182.9207
 21
-37.770065
 31
0.0
  0
LINE
  5
285
100
AcDbEntity
  8
LY_3
390
0
  6
CONTINUOUS
 62
     3
100
AcDbLine
 10
182.919946
 20
-37.770655
 30
0.0
 11
181.919872
 21
-36.770598
 31
0.0
  0
LINE
  5
286
100
AcDbEntity
  8
LY_3
390
0
  6
CONTINUOUS
 62
     3
100
AcDbLine
 10
185.21985
 20
-36.770382
 30
0.0
 11
184.219781
 21
-37.770445
 31
0.0
  0
LINE
  5
287
100
AcDbEntity
  8
LY_3
390
0
  6
CONTINUOUS
 62
     3
100
AcDbLine
 10
182.219697
 20
-28.570348
 30
0.0
 11
185.219713
 21
-31.570382
 31
0.0
  0
LINE
  5
288
100
AcDbEntity
  8
LY_3
390
0
  6
CONTINUOUS
 62
     3
100
AcDbLine
 10
180.220276
 20
26.428497
 30
0.0
 11
180.220276
 21
-28.570114
 31
0.0
  0
LINE
  5
289
100
AcDbEntity
  8
LY_3
390
0
  6
CONTINUOUS
 62
     3
100
AcDbLine
 10
175.289688
 20
-40.070831
 30
0.0
 11
95.22049
 21
-40.070831
 31
0.0
  0
LINE
  5
28A
100
AcDbEntity
  8
LY_3
390
0
  6
CONTINUOUS
 62
     3
100
AcDbLine
 10
177.887768
 20
-38.570832
 30
0.0
 11
179.620236
 21
-35.57011
 31
0.0
  0
LINE
  5
28B
100
AcDbEntity
  8
LY_3
390
0
  6
CONTINUOUS
 62
     3
100
AcDbLine
 10
174.070557
 20
-10.071533
 30
0.0
 11
172.570557
 21
-10.071533
 31
0.0
  0
LINE
  5
28C
100
AcDbEntity
  8
LY_3
390
0
  6
CONTINUOUS
 62
     3
100
AcDbLine
 10
172.570557
 20
-0.071533
 30
0.0
 11
174.070557
 21
-0.071533
 31
0.0
  0
LINE
  5
28D
100
AcDbEntity
  8
LY_3
390
0
  6
CONTINUOUS
 62
     3
100
AcDbLine
 10
172.570557
 20
79.928467
 30
0.0
 11
174.070557
 21
79.928467
 31
0.0
  0
LINE
  5
28E
100
AcDbEntity
  8
LY_3
390
0
  6
CONTINUOUS
 62
     3
100
AcDbLine
 10
174.070557
 20
69.928467
 30
0.0
 11
172.570557
 21
69.928467
 31
0.0
  0
LINE
  5
28F
100
AcDbEntity
  8
LY_3
390
0
  6
CONTINUOUS
 62
     3
100
AcDbLine
 10
22.613953
 20
77.177856
 30
0.0
 11
26.322205
 21
77.177856
 31
0.0
  0
LINE
  5
290
100
AcDbEntity
  8
LY_3
390
0
  6
CONTINUOUS
 62
     3
100
AcDbLine
 10
22.613953
 20
75.677856
 30
0.0
 11
26.322205
 21
75.677856
 31
0.0
  0
LINE
  5
291
100
AcDbEntity
  8
LY_3
390
0
  6
CONTINUOUS
 62
     3
100
AcDbLine
 10
22.613953
 20
94.177368
 30
0.0
 11
26.322205
 21
94.177368
 31
0.0
  0
LINE
  5
292
100
AcDbEntity
  8
LY_3
390
0
  6
CONTINUOUS
 62
     3
100
AcDbLine
 10
22.613953
 20
92.677368
 30
0.0
 11
26.322205
 21
92.677368
 31
0.0
  0
LINE
  5
293
100
AcDbEntity
  8
LY_3
390
0
  6
CONTINUOUS
 62
     3
100
AcDbLine
 10
72.719238
 20
26.928253
 30
0.0
 11
67.219254
 21
26.928253
 31
0.0
  0
LINE
  5
294
100
AcDbEntity
  8
LY_3
390
0
  6
CONTINUOUS
 62
     3
100
AcDbLine
 10
69.219269
 20
-11.072208
 30
0.0
 11
72.719315
 21
-11.072208
 31
0.0
  0
LINE
  5
295
100
AcDbEntity
  8
LY_3
390
0
  6
CONTINUOUS
 62
     3
100
AcDbLine
 10
69.219269
 20
-4.072281
 30
0.0
 11
72.719315
 21
-4.072281
 31
0.0
  0
LINE
  5
296
100
AcDbEntity
  8
LY_3
390
0
  6
CONTINUOUS
 62
     3
100
AcDbLine
 10
68.219238
 20
-40.071716
 30
0.0
 11
72.719238
 21
-40.071716
 31
0.0
  0
LINE
  5
297
100
AcDbEntity
  8
LY_3
390
0
  6
CONTINUOUS
 62
     3
100
AcDbLine
 10
72.719254
 20
-11.072209
 30
0.0
 11
72.719254
 21
-40.071716
 31
0.0
  0
LINE
  5
298
100
AcDbEntity
  8
LY_3
390
0
  6
CONTINUOUS
 62
     3
100
AcDbLine
 10
67.219269
 20
42.928192
 30
0.0
 11
72.719254
 21
42.928192
 31
0.0
  0
LINE
  5
299
100
AcDbEntity
  8
LY_3
390
0
  6
CONTINUOUS
 62
     3
100
AcDbLine
 10
67.219238
 20
-39.071716
 30
0.0
 11
67.219238
 21
108.928207
 31
0.0
  0
LINE
  5
29A
100
AcDbEntity
  8
LY_3
390
0
  6
CONTINUOUS
 62
     3
100
AcDbLine
 10
72.719238
 20
73.928787
 30
0.0
 11
72.719238
 21
42.928238
 31
0.0
  0
LINE
  5
29B
100
AcDbEntity
  8
LY_3
390
0
  6
CONTINUOUS
 62
     3
100
AcDbLine
 10
72.719299
 20
80.928711
 30
0.0
 11
69.219238
 21
80.928711
 31
0.0
  0
LINE
  5
29C
100
AcDbEntity
  8
LY_3
390
0
  6
CONTINUOUS
 62
     3
100
AcDbLine
 10
72.719284
 20
73.928726
 30
0.0
 11
69.219254
 21
73.928726
 31
0.0
  0
LINE
  5
29D
100
AcDbEntity
  8
LY_3
390
0
  6
CONTINUOUS
 62
     3
100
AcDbLine
 10
72.719238
 20
109.928223
 30
0.0
 11
68.219254
 21
109.928223
 31
0.0
  0
LINE
  5
29E
100
AcDbEntity
  8
LY_3
390
0
  6
CONTINUOUS
 62
     3
100
AcDbLine
 10
72.719269
 20
109.928268
 30
0.0
 11
72.719269
 21
80.928772
 31
0.0
  0
LINE
  5
29F
100
AcDbEntity
  8
LY_3
390
0
  6
CONTINUOUS
 62
     3
100
AcDbLine
 10
72.719238
 20
26.928299
 30
0.0
 11
72.719238
 21
-4.07222
 31
0.0
  0
LINE
  5
2A0
100
AcDbEntity
  8
LY_3
390
0
  6
CONTINUOUS
 62
     3
100
AcDbLine
 10
69.219238
 20
73.928711
 30
0.0
 11
69.219238
 21
80.928696
 31
0.0
  0
LINE
  5
2A1
100
AcDbEntity
  8
LY_3
390
0
  6
CONTINUOUS
 62
     3
100
AcDbLine
 10
69.219254
 20
-11.072236
 30
0.0
 11
69.219254
 21
-4.072266
 31
0.0
  0
LINE
  5
2A2
100
AcDbEntity
  8
LY_3
390
0
  6
CONTINUOUS
 62
     3
100
AcDbLine
 10
-45.394547
 20
7.429291
 30
0.0
 11
-42.279541
 21
7.429291
 31
0.0
  0
LINE
  5
2A3
100
AcDbEntity
  8
LY_3
390
0
  6
CONTINUOUS
 62
     3
100
AcDbLine
 10
-42.279556
 20
45.429001
 30
0.0
 11
-45.394547
 21
45.429001
 31
0.0
  0
LINE
  5
2A4
100
AcDbEntity
  8
LY_3
390
0
  6
CONTINUOUS
 62
     3
100
AcDbLine
 10
-45.394547
 20
-33.071259
 30
0.0
 11
-42.279541
 21
-33.071259
 31
0.0
  0
LINE
  5
2A5
100
AcDbEntity
  8
LY_3
390
0
  6
CONTINUOUS
 62
     3
100
AcDbLine
 10
-42.279541
 20
4.928802
 30
0.0
 11
-45.394547
 21
4.928802
 31
0.0
  0
LINE
  5
2A6
100
AcDbEntity
  8
LY_3
390
0
  6
CONTINUOUS
 62
     3
100
AcDbLine
 10
-42.279541
 20
107.928467
 30
0.0
 11
-45.394547
 21
107.928467
 31
0.0
  0
LINE
  5
2A7
100
AcDbEntity
  8
LY_3
390
0
  6
CONTINUOUS
 62
     3
100
AcDbLine
 10
-45.394547
 20
-38.071503
 30
0.0
 11
-42.279541
 21
-38.071503
 31
0.0
  0
LINE
  5
2A8
100
AcDbEntity
  8
LY_3
390
0
  6
CONTINUOUS
 62
     3
100
AcDbLine
 10
-44.279541
 20
109.928467
 30
0.0
 11
-44.279541
 21
-40.071533
 31
0.0
  0
LINE
  5
2A9
100
AcDbEntity
  8
LY_3
390
0
  6
CONTINUOUS
 62
     3
100
AcDbLine
 10
-45.394547
 20
107.928467
 30
0.0
 11
-45.394547
 21
-38.071503
 31
0.0
  0
LINE
  5
2AA
100
AcDbEntity
  8
LY_3
390
0
  6
CONTINUOUS
 62
     3
100
AcDbLine
 10
-42.280754
 20
-59.570889
 30
0.0
 11
-42.280754
 21
-111.570068
 31
0.0
  0
LINE
  5
2AB
100
AcDbEntity
  8
LY_3
390
0
  6
CONTINUOUS
 62
     3
100
AcDbLine
 10
-42.28068
 20
-59.570821
 30
0.0
 11
-44.280523
 21
-58.569926
 31
0.0
  0
LINE
  5
2AC
100
AcDbEntity
  8
LY_3
390
0
  6
CONTINUOUS
 62
     3
100
AcDbLine
 10
-42.280935
 20
-67.070133
 30
0.0
 11
-47.780769
 21
-68.762378
 31
0.0
  0
LINE
  5
2AD
100
AcDbEntity
  8
LY_3
390
0
  6
CONTINUOUS
 62
     3
100
AcDbLine
 10
-47.780754
 20
-68.762474
 30
0.0
 11
-47.780754
 21
-111.570068
 31
0.0
  0
ARC
  5
2AE
100
AcDbEntity
  8
LY_3
390
0
  6
CONTINUOUS
 62
     3
100
AcDbCircle
 10
68.220215
 20
-39.071533
 30
0.0
 40
1.0
100
AcDbArc
 50
180.000036
 51
270.000018
  0
ARC
  5
2AF
100
AcDbEntity
  8
LY_3
390
0
  6
CONTINUOUS
 62
     3
100
AcDbCircle
 10
68.220459
 20
108.928467
 30
0.0
 40
1.0
100
AcDbArc
 50
90.000037
 51
179.999964
  0
ARC
  5
2B0
100
AcDbEntity
  8
LY_3
390
0
  6
CONTINUOUS
 62
     3
100
AcDbCircle
 10
-43.279541
 20
-39.071533
 30
0.0
 40
1.0
100
AcDbArc
 50
270.000018
 51
359.999982
  0
ARC
  5
2B1
100
AcDbEntity
  8
LY_3
390
0
  6
CONTINUOUS
 62
     3
100
AcDbCircle
 10
-43.279541
 20
108.928467
 30
0.0
 40
1.0
100
AcDbArc
 50
359.999982
 51
89.999927
  0
ARC
  5
2B2
100
AcDbEntity
  8
LY_3
390
0
  6
CONTINUOUS
 62
     3
100
AcDbCircle
 10
-147.57933
 20
102.178421
 30
0.0
 40
4.5
100
AcDbArc
 50
270.000018
 51
89.999982
  0
ARC
  5
2B3
100
AcDbEntity
  8
LY_3
390
0
  6
CONTINUOUS
 62
     3
100
AcDbCircle
 10
-150.34874
 20
-37.070923
 30
0.0
 40
3.0
100
AcDbArc
 50
209.999866
 51
270.000237
  0
ARC
  5
2B4
100
AcDbEntity
  8
LY_3
390
0
  6
CONTINUOUS
 62
     3
100
AcDbCircle
 10
-147.579315
 20
-32.321487
 30
0.0
 40
4.5
100
AcDbArc
 50
270.000073
 51
89.999982
  0
CIRCLE
  5
2B5
100
AcDbEntity
  8
LY_3
390
0
  6
CONTINUOUS
 62
     3
100
AcDbCircle
 10
-147.57933
 20
102.178421
 30
0.0
 40
3.25
  0
CIRCLE
  5
2B6
100
AcDbEntity
  8
LY_3
390
0
  6
CONTINUOUS
 62
     3
100
AcDbCircle
 10
-147.5793
 20
-32.321487
 30
0.0
 40
3.25
  0
ARC
  5
2B7
100
AcDbEntity
  8
LY_3
390
0
  6
CONTINUOUS
 62
     3
100
AcDbCircle
 10
-75.279602
 20
-85.071518
 30
0.0
 40
4.0
100
AcDbArc
 50
89.999982
 51
269.999891
  0
CIRCLE
  5
2B8
100
AcDbEntity
  8
LY_3
390
0
  6
CONTINUOUS
 62
     3
100
AcDbCircle
 10
-75.279572
 20
-85.071518
 30
0.0
 40
3.25
  0
ARC
  5
2B9
100
AcDbEntity
  8
LY_3
390
0
  6
CONTINUOUS
 62
     3
100
AcDbCircle
 10
111.370361
 20
-32.920166
 30
0.0
 40
4.0
100
AcDbArc
 50
179.999964
 51
270.000219
  0
ARC
  5
2BA
100
AcDbEntity
  8
LY_3
390
0
  6
CONTINUOUS
 62
     3
100
AcDbCircle
 10
170.070068
 20
-32.920166
 30
0.0
 40
4.0
100
AcDbArc
 50
270.000018
 51
0.0
  0
ARC
  5
2BB
100
AcDbEntity
  8
LY_3
390
0
  6
CONTINUOUS
 62
     3
100
AcDbCircle
 10
170.070068
 20
102.777832
 30
0.0
 40
4.0
100
AcDbArc
 50
0.0
 51
89.999982
  0
ARC
  5
2BC
100
AcDbEntity
  8
LY_3
390
0
  6
CONTINUOUS
 62
     3
100
AcDbCircle
 10
111.370361
 20
102.777954
 30
0.0
 40
4.0
100
AcDbArc
 50
89.999763
 51
179.999745
  0
ARC
  5
2BD
100
AcDbEntity
  8
LY_3
390
0
  6
CONTINUOUS
 62
     3
100
AcDbCircle
 10
108.870361
 20
69.428467
 30
0.0
 40
0.5
100
AcDbArc
 50
270.000073
 51
89.999927
  0
ARC
  5
2BE
100
AcDbEntity
  8
LY_3
390
0
  6
CONTINUOUS
 62
     3
100
AcDbCircle
 10
108.870361
 20
80.428467
 30
0.0
 40
0.5
100
AcDbArc
 50
270.000127
 51
89.999982
  0
ARC
  5
2BF
100
AcDbEntity
  8
LY_3
390
0
  6
CONTINUOUS
 62
     3
100
AcDbCircle
 10
140.720459
 20
88.928467
 30
0.0
 40
1.0
100
AcDbArc
 50
0.000036
 51
179.999909
  0
ARC
  5
2C0
100
AcDbEntity
  8
LY_3
390
0
  6
CONTINUOUS
 62
     3
100
AcDbCircle
 10
140.720459
 20
60.928467
 30
0.0
 40
1.0
100
AcDbArc
 50
180.000145
 51
359.999964
  0
ARC
  5
2C1
100
AcDbEntity
  8
LY_3
390
0
  6
CONTINUOUS
 62
     3
100
AcDbCircle
 10
120.720459
 20
88.928467
 30
0.0
 40
1.0
100
AcDbArc
 50
0.000036
 51
179.999909
  0
ARC
  5
2C2
100
AcDbEntity
  8
LY_3
390
0
  6
CONTINUOUS
 62
     3
100
AcDbCircle
 10
120.720459
 20
60.928467
 30
0.0
 40
1.0
100
AcDbArc
 50
180.000145
 51
359.999964
  0
ARC
  5
2C3
100
AcDbEntity
  8
LY_3
390
0
  6
CONTINUOUS
 62
     3
100
AcDbCircle
 10
172.570557
 20
69.428467
 30
0.0
 40
0.5
100
AcDbArc
 50
90.000037
 51
269.999891
  0
ARC
  5
2C4
100
AcDbEntity
  8
LY_3
390
0
  6
CONTINUOUS
 62
     3
100
AcDbCircle
 10
172.570557
 20
80.428467
 30
0.0
 40
0.5
100
AcDbArc
 50
89.999982
 51
269.999837
  0
ARC
  5
2C5
100
AcDbEntity
  8
LY_3
390
0
  6
CONTINUOUS
 62
     3
100
AcDbCircle
 10
160.720459
 20
88.928467
 30
0.0
 40
1.0
100
AcDbArc
 50
0.000091
 51
179.999964
  0
ARC
  5
2C6
100
AcDbEntity
  8
LY_3
390
0
  6
CONTINUOUS
 62
     3
100
AcDbCircle
 10
160.720459
 20
60.928467
 30
0.0
 40
1.0
100
AcDbArc
 50
180.000036
 51
359.999855
  0
ARC
  5
2C7
100
AcDbEntity
  8
LY_3
390
0
  6
CONTINUOUS
 62
     3
100
AcDbCircle
 10
108.870361
 20
0.428467
 30
0.0
 40
0.5
100
AcDbArc
 50
270.000127
 51
89.999927
  0
ARC
  5
2C8
100
AcDbEntity
  8
LY_3
390
0
  6
CONTINUOUS
 62
     3
100
AcDbCircle
 10
108.870361
 20
-10.571533
 30
0.0
 40
0.5
100
AcDbArc
 50
270.000073
 51
89.999873
  0
ARC
  5
2C9
100
AcDbEntity
  8
LY_3
390
0
  6
CONTINUOUS
 62
     3
100
AcDbCircle
 10
140.720459
 20
-19.071533
 30
0.0
 40
1.0
100
AcDbArc
 50
180.000145
 51
359.999964
  0
ARC
  5
2CA
100
AcDbEntity
  8
LY_3
390
0
  6
CONTINUOUS
 62
     3
100
AcDbCircle
 10
140.720459
 20
8.928467
 30
0.0
 40
1.0
100
AcDbArc
 50
0.000036
 51
179.999855
  0
ARC
  5
2CB
100
AcDbEntity
  8
LY_3
390
0
  6
CONTINUOUS
 62
     3
100
AcDbCircle
 10
120.720459
 20
-19.071533
 30
0.0
 40
1.0
100
AcDbArc
 50
180.000145
 51
359.999964
  0
ARC
  5
2CC
100
AcDbEntity
  8
LY_3
390
0
  6
CONTINUOUS
 62
     3
100
AcDbCircle
 10
120.720459
 20
8.928467
 30
0.0
 40
1.0
100
AcDbArc
 50
0.000036
 51
179.999855
  0
ARC
  5
2CD
100
AcDbEntity
  8
LY_3
390
0
  6
CONTINUOUS
 62
     3
100
AcDbCircle
 10
172.570557
 20
0.428467
 30
0.0
 40
0.5
100
AcDbArc
 50
90.000091
 51
269.999946
  0
ARC
  5
2CE
100
AcDbEntity
  8
LY_3
390
0
  6
CONTINUOUS
 62
     3
100
AcDbCircle
 10
172.570557
 20
-10.571533
 30
0.0
 40
0.5
100
AcDbArc
 50
90.000146
 51
270.000001
  0
ARC
  5
2CF
100
AcDbEntity
  8
LY_3
390
0
  6
CONTINUOUS
 62
     3
100
AcDbCircle
 10
160.720459
 20
-19.071533
 30
0.0
 40
1.0
100
AcDbArc
 50
180.000091
 51
359.999909
  0
ARC
  5
2D0
100
AcDbEntity
  8
LY_3
390
0
  6
CONTINUOUS
 62
     3
100
AcDbCircle
 10
160.720459
 20
8.928467
 30
0.0
 40
1.0
100
AcDbArc
 50
0.000145
 51
179.999964
  0
ARC
  5
2D1
100
AcDbEntity
  8
LY_3
390
0
  6
CONTINUOUS
 62
     3
100
AcDbCircle
 10
24.468018
 20
95.525223
 30
0.0
 40
2.399797
100
AcDbArc
 50
0.000146
 51
180.000128
  0
ARC
  5
2D2
100
AcDbEntity
  8
LY_3
390
0
  6
CONTINUOUS
 62
     3
100
AcDbCircle
 10
24.468018
 20
91.324875
 30
0.0
 40
2.399796
100
AcDbArc
 50
180.000255
 51
0.000146
  0
ARC
  5
2D3
100
AcDbEntity
  8
LY_3
390
0
  6
CONTINUOUS
 62
     3
100
AcDbCircle
 10
24.467773
 20
78.525711
 30
0.0
 40
2.399797
100
AcDbArc
 50
0.000146
 51
180.000128
  0
ARC
  5
2D4
100
AcDbEntity
  8
LY_3
390
0
  6
CONTINUOUS
 62
     3
100
AcDbCircle
 10
24.467773
 20
74.325363
 30
0.0
 40
2.399796
100
AcDbArc
 50
180.000255
 51
0.000146
  0
ARC
  5
2D5
100
AcDbEntity
  8
LY_3
390
0
  6
CONTINUOUS
 62
     3
100
AcDbCircle
 10
24.468872
 20
95.525208
 30
0.0
 40
3.149797
100
AcDbArc
 50
0.000091
 51
180.000073
  0
ARC
  5
2D6
100
AcDbEntity
  8
LY_3
390
0
  6
CONTINUOUS
 62
     3
100
AcDbCircle
 10
24.468872
 20
91.324768
 30
0.0
 40
3.149796
100
AcDbArc
 50
180.000309
 51
0.000091
  0
ARC
  5
2D7
100
AcDbEntity
  8
LY_3
390
0
  6
CONTINUOUS
 62
     3
100
AcDbCircle
 10
24.468628
 20
78.525772
 30
0.0
 40
3.149797
100
AcDbArc
 50
0.000091
 51
180.000073
  0
ARC
  5
2D8
100
AcDbEntity
  8
LY_3
390
0
  6
CONTINUOUS
 62
     3
100
AcDbCircle
 10
24.468628
 20
74.325424
 30
0.0
 40
3.149796
100
AcDbArc
 50
180.000309
 51
0.000091
  0
ARC
  5
2D9
100
AcDbEntity
  8
LY_3
390
0
  6
CONTINUOUS
 62
     3
100
AcDbCircle
 10
24.468018
 20
91.324875
 30
0.0
 40
3.649796
100
AcDbArc
 50
180.000255
 51
0.000146
  0
ARC
  5
2DA
100
AcDbEntity
  8
LY_3
390
0
  6
CONTINUOUS
 62
     3
100
AcDbCircle
 10
24.468018
 20
95.525223
 30
0.0
 40
3.649797
100
AcDbArc
 50
0.000146
 51
180.000128
  0
ARC
  5
2DB
100
AcDbEntity
  8
LY_3
390
0
  6
CONTINUOUS
 62
     3
100
AcDbCircle
 10
24.467773
 20
78.525711
 30
0.0
 40
3.649797
100
AcDbArc
 50
0.000146
 51
180.000128
  0
ARC
  5
2DC
100
AcDbEntity
  8
LY_3
390
0
  6
CONTINUOUS
 62
     3
100
AcDbCircle
 10
24.467773
 20
74.325363
 30
0.0
 40
3.649796
100
AcDbArc
 50
180.000255
 51
0.000146
  0
CIRCLE
  5
2DD
100
AcDbEntity
  8
LY_3
390
0
  6
CONTINUOUS
 62
     3
100
AcDbCircle
 10
-6.330933
 20
72.327484
 30
0.0
 40
1.399999
  0
ARC
  5
2DE
100
AcDbEntity
  8
LY_3
390
0
  6
CONTINUOUS
 62
     3
100
AcDbCircle
 10
24.468445
 20
95.529877
 30
0.0
 40
3.799796
100
AcDbArc
 50
0.000255
 51
180.000142
  0
ARC
  5
2DF
100
AcDbEntity
  8
LY_3
390
0
  6
CONTINUOUS
 62
     3
100
AcDbCircle
 10
24.467712
 20
78.525696
 30
0.0
 40
3.799798
100
AcDbArc
 50
0.000146
 51
180.000128
  0
CIRCLE
  5
2E0
100
AcDbEntity
  8
LY_3
390
0
  6
CONTINUOUS
 62
     3
100
AcDbCircle
 10
-6.330933
 20
80.727478
 30
0.0
 40
1.399999
  0
CIRCLE
  5
2E1
100
AcDbEntity
  8
LY_3
390
0
  6
CONTINUOUS
 62
     3
100
AcDbCircle
 10
-6.330933
 20
76.527466
 30
0.0
 40
1.399999
  0
CIRCLE
  5
2E2
100
AcDbEntity
  8
LY_3
390
0
  6
CONTINUOUS
 62
     3
100
AcDbCircle
 10
-6.330933
 20
84.92749
 30
0.0
 40
1.399999
  0
ARC
  5
2E3
100
AcDbEntity
  8
LY_3
390
0
  6
CONTINUOUS
 62
     3
100
AcDbCircle
 10
24.467712
 20
74.325348
 30
0.0
 40
3.799796
100
AcDbArc
 50
180.000255
 51
0.000146
  0
CIRCLE
  5
2E4
100
AcDbEntity
  8
LY_3
390
0
  6
CONTINUOUS
 62
     3
100
AcDbCircle
 10
-6.330933
 20
89.127472
 30
0.0
 40
1.399999
  0
CIRCLE
  5
2E5
100
AcDbEntity
  8
LY_3
390
0
  6
CONTINUOUS
 62
     3
100
AcDbCircle
 10
-6.330933
 20
97.527466
 30
0.0
 40
1.399999
  0
CIRCLE
  5
2E6
100
AcDbEntity
  8
LY_3
390
0
  6
CONTINUOUS
 62
     3
100
AcDbCircle
 10
-6.330933
 20
93.327484
 30
0.0
 40
1.399999
  0
ARC
  5
2E7
100
AcDbEntity
  8
LY_3
390
0
  6
CONTINUOUS
 62
     3
100
AcDbCircle
 10
24.467957
 20
91.32486
 30
0.0
 40
3.799796
100
AcDbArc
 50
180.000255
 51
0.000146
  0
ARC
  5
2E8
100
AcDbEntity
  8
LY_3
390
0
  6
CONTINUOUS
 62
     3
100
AcDbCircle
 10
175.289703
 20
-37.070847
 30
0.0
 40
3.0
100
AcDbArc
 50
270.000018
 51
330.000177
  0
CIRCLE
  5
2E9
100
AcDbEntity
  8
LY_3
390
0
  6
CONTINUOUS
 62
     3
100
AcDbCircle
 10
24.468201
 20
76.427856
 30
0.0
 40
2.0
  0
CIRCLE
  5
2EA
100
AcDbEntity
  8
LY_3
390
0
  6
CONTINUOUS
 62
     3
100
AcDbCircle
 10
24.468201
 20
93.427368
 30
0.0
 40
2.0
  0
ARC
  5
2EB
100
AcDbEntity
  8
LY_3
390
0
  6
CONTINUOUS
 62
     3
100
AcDbCircle
 10
68.219254
 20
108.928223
 30
0.0
 40
1.0
100
AcDbArc
 50
89.999108
 51
180.000019
  0
ARC
  5
2EC
100
AcDbEntity
  8
LY_3
390
0
  6
CONTINUOUS
 62
     3
100
AcDbCircle
 10
68.219238
 20
-39.071716
 30
0.0
 40
1.0
100
AcDbArc
 50
179.999964
 51
270.000001
  0
MTEXT
  5
2ED
100
AcDbEntity
  8
LY_3
390
0
  6
CONTINUOUS
 62
   110
100
AcDbMText
 10
215.402252
 20
-122.30915
 30
0.0
 40
4.17
 41
0.0
 71
     1
 72
     1
  1
\W1.102;\A1;FP10SH CPU
 73
     1
 44
0.899281
  0
DIMENSION
  5
301
100
AcDbEntity
  8
LY_3
390
0
  6
CONTINUOUS
 62
   110
100
AcDbDimension
  2
*D1
 10
-42.279541
 20
122.412476
 30
0.0
 11
-98.779297
 21
122.412476
 31
0.0
 70
   128
 71
     5
 72
     1
 41
0.899281
 42
112.999512
  1
\A1;<>
  3
MXDIMSTYLE
100
AcDbAlignedDimension
 13
-155.279053
 23
109.927734
 33
0.0
 14
-42.279541
 24
108.927979
 34
0.0
100
AcDbRotatedDimension
1001
ACAD
1000
DSTYLE
1002
{
1070
     6
1000
_OPEN
1070
     7
1000
_OPEN
1070
    41
1040
3.0
1070
    44
1040
0.5
1070
    78
1070
     0
1070
   140
1040
2.54
1070
   271
1070
     1
1070
   340
1005
2FB
1070
   343
1005
2F3
1070
   344
1005
2F3
1002
}
  0
DIMENSION
  5
30F
100
AcDbEntity
  8
LY_3
390
0
  6
CONTINUOUS
 62
   110
100
AcDbDimension
  2
*D3
 10
36.470459
 20
122.412476
 30
0.0
 11
9.970459
 21
122.412476
 31
0.0
 70
   128
 71
     5
 72
     1
 41
0.899281
 42
53.0
  1
\A1;<>
  3
MXDIMSTYLE
100
AcDbAlignedDimension
 13
-16.529541
 23
109.928223
 33
0.0
 14
36.470459
 24
109.927979
 34
0.0
100
AcDbRotatedDimension
1001
ACAD
1000
DSTYLE
1002
{
1070
     6
1000
_OPEN
1070
     7
1000
_OPEN
1070
    41
1040
3.0
1070
    44
1040
0.5
1070
    78
1070
     0
1070
   140
1040
2.54
1070
   271
1070
     1
1070
   340
1005
309
1070
   343
1005
2F3
1070
   344
1005
2F3
1002
}
  0
DIMENSION
  5
31D
100
AcDbEntity
  8
LY_3
390
0
  6
CONTINUOUS
 62
   110
100
AcDbDimension
  2
*D4
 10
50.060425
 20
-40.071777
 30
0.0
 11
50.060425
 21
34.928223
 31
0.0
 70
   128
 71
     5
 72
     1
 41
0.899281
 42
150.0
  1
\A1;<>
  3
MXDIMSTYLE
100
AcDbAlignedDimension
 13
36.470459
 23
109.928223
 33
0.0
 14
36.470459
 24
-40.071777
 34
0.0
 50
90.0
100
AcDbRotatedDimension
1001
ACAD
1000
DSTYLE
1002
{
1070
     6
1000
_OPEN
1070
     7
1000
_OPEN
1070
    41
1040
3.0
1070
    44
1040
0.5
1070
    78
1070
     0
1070
   140
1040
2.54
1070
   271
1070
     1
1070
   340
1005
317
1070
   343
1005
2F3
1070
   344
1005
2F3
1002
}
  0
ENDSEC
  0
SECTION
  2
OBJECTS
  0
DICTIONARY
  5
19
100
AcDbDictionary
280
     0
281
     1
  3
ACAD_GROUP
350
1A
  3
ACAD_MLINESTYLE
350
1B
  3
ACAD_LAYOUT
350
1E
  3
ACAD_PLOTSETTINGS
350
22
  3
ACAD_PLOTSTYLENAME
350
1F
  0
DICTIONARY
  5
1A
102
{ACAD_REACTORS
330
19
102
}
100
AcDbDictionary
280
     0
281
     1
  0
DICTIONARY
  5
1B
102
{ACAD_REACTORS
330
19
102
}
100
AcDbDictionary
280
     0
281
     1
  3
Standard
350
1C
  0
MLINESTYLE
  5
1C
102
{ACAD_REACTORS
330
1B
102
}
100
AcDbMlineStyle
  2
Standard
 70
     0
  3

 62
     0
 51
90.0
 52
90.0
 71
     2
 49
0.5
 62
   256
  6
ByLayer
 49
-0.5
 62
   256
  6
ByLayer
  0
ACDBDICTIONARYWDFLT
  5
1F
102
{ACAD_REACTORS
330
19
102
}
100
AcDbDictionary
281
     1
  3
Normal
350
1D
100
AcDbDictionaryWithDefault
340
1D
  0
ACDBPLACEHOLDER
  5
1D
102
{ACAD_REACTORS
330
1F
102
}
  0
LAYOUT
  5
20
102
{ACAD_REACTORS
330
1E
102
}
100
AcDbPlotSettings
  1

  2

  4

  6

 40
0.0
 41
0.0
 42
0.0
 43
0.0
 44
0.0
 45
0.0
 46
0.0
 47
0.0
 48
0.0
 49
0.0
140
0.0
141
0.0
142
1.0
143
1.0
 70
  1024
 72
     0
 73
     0
 74
     0
  7

 75
     0
147
1.0
148
0.0
149
0.0
100
AcDbLayout
  1
Model
 70
     0
 71
     0
 10
0.0
 20
0.0
 11
0.0
 21
0.0
 12
0.0
 22
0.0
 32
0.0
 14
0.0
 24
0.0
 34
0.0
 15
0.0
 25
0.0
 35
0.0
146
0.0
 13
0.0
 23
0.0
 33
0.0
 16
0.0
 26
0.0
 36
0.0
 17
0.0
 27
0.0
 37
0.0
 76
     0
330
A
331
0
345
0
346
0
  0
LAYOUT
  5
21
102
{ACAD_REACTORS
330
1E
102
}
100
AcDbPlotSettings
  1

  2

  4

  6

 40
0.0
 41
0.0
 42
0.0
 43
0.0
 44
0.0
 45
0.0
 46
0.0
 47
0.0
 48
0.0
 49
0.0
140
0.0
141
0.0
142
1.0
143
1.0
 70
     0
 72
     0
 73
     0
 74
     0
  7

 75
     0
147
1.0
148
0.0
149
0.0
100
AcDbLayout
  1
Layout1
 70
     0
 71
     0
 10
0.0
 20
0.0
 11
0.0
 21
0.0
 12
0.0
 22
0.0
 32
0.0
 14
0.0
 24
0.0
 34
0.0
 15
0.0
 25
0.0
 35
0.0
146
0.0
 13
0.0
 23
0.0
 33
0.0
 16
0.0
 26
0.0
 36
0.0
 17
0.0
 27
0.0
 37
0.0
 76
     0
330
B
331
0
345
0
346
0
  0
DICTIONARY
  5
1E
102
{ACAD_REACTORS
330
19
102
}
100
AcDbDictionary
280
     0
281
     1
  3
Layout1
350
21
  3
Model
350
20
  0
DICTIONARY
  5
22
102
{ACAD_REACTORS
330
19
102
}
100
AcDbDictionary
280
     0
281
     1
  0
ENDSEC
  0
EOF
